<?xml version="1.0" standalone="no"?>
<!DOCTYPE svg PUBLIC "-//W3C//DTD SVG 1.1//EN" "http://www.w3.org/Graphics/SVG/1.1/DTD/svg11.dtd" >
<svg xmlns="http://www.w3.org/2000/svg" xmlns:xlink="http://www.w3.org/1999/xlink" version="1.1">
<metadata>
Created by FontForge 20170731 at Sat Jul 28 03:05:51 2001
 By Aleksey,,,
Copyright (c) 1987, 1991, 1993 Adobe Systems Incorporated.  All Rights Reserved.Futura is a registered trademark of Fundicion Tipografica Neufville S. A.
</metadata>
<defs>
<font id="FuturaLT" horiz-adv-x="578" >
  <font-face 
    font-family="Futura LT Medium"
    font-weight="400"
    font-stretch="normal"
    units-per-em="1000"
    panose-1="2 0 5 4 2 0 0 2 0 3"
    ascent="800"
    descent="-200"
    x-height="468"
    cap-height="754"
    bbox="-163 -268 1113 1020"
    underline-thickness="75"
    underline-position="-261"
    unicode-range="U+0020-2122"
  />
<missing-glyph horiz-adv-x="500" 
d="M442 8v496h-384v-496h384zM50 512h400v-512h-400v512z" />
    <glyph glyph-name=".notdef" horiz-adv-x="500" 
d="M442 8v496h-384v-496h384zM50 512h400v-512h-400v512z" />
    <glyph glyph-name=".null" horiz-adv-x="0" 
 />
    <glyph glyph-name="nonmarkingreturn" horiz-adv-x="289" 
 />
    <glyph glyph-name="space" unicode=" " horiz-adv-x="289" 
 />
    <glyph glyph-name="exclam" unicode="!" horiz-adv-x="321" 
d="M116 754h90v-580h-90v580zM161 100q24 0 41 -17.5t17 -40.5q0 -24 -17 -41t-41 -17t-41 17t-17 41q0 23 17 40.5t41 17.5z" />
    <glyph glyph-name="quotedbl" unicode="&#x22;" horiz-adv-x="439" 
d="M349 754l-18 -328h-62l-18 328h98zM188 754l-18 -328h-62l-18 328h98z" />
    <glyph glyph-name="numbersign" unicode="#" 
d="M218 290h123l27 154h-123zM294 718l-36 -194h124l35 194h79l-35 -194h92v-80h-107l-27 -154h101v-80h-117l-38 -210h-76l37 210h-123l-40 -210h-75l37 210h-100v80h115l27 154h-105v80h119l36 194h77z" />
    <glyph glyph-name="dollar" unicode="$" 
d="M283 683q-39 -6 -66 -34.5t-27 -68.5q0 -44 27.5 -68.5t65.5 -39.5v211zM283 860h50v-90q57 -5 100.5 -35t70.5 -81l-79 -45q-16 30 -38 47t-54 27v-235q38 -17 73 -37.5t62 -48t43.5 -63t16.5 -81.5q0 -41 -15.5 -80.5t-41.5 -71.5t-62 -54t-76 -28v-95h-50v95
q-44 1 -83.5 17.5t-70.5 45t-51.5 66.5t-27.5 81l90 19q13 -64 45 -98.5t98 -42.5v300l-36 18q-30 15 -56 31.5t-45.5 38t-31 49t-11.5 64.5t14 71.5t38.5 61.5t57 44t70.5 20v90zM333 78q23 5 42 18t33 31t22 40.5t8 46.5q0 25 -8.5 45.5t-23 36.5t-33.5 29t-40 24v-271z
" />
    <glyph glyph-name="percent" unicode="%" horiz-adv-x="708" 
d="M516 267q-23 0 -44 -9t-37 -24t-25.5 -35.5t-9.5 -43.5t9.5 -43t25.5 -35t37 -24t44 -9t44 9t37 24t25.5 35t9.5 43t-9.5 43.5t-25.5 35.5t-37 24t-44 9zM516 327q36 0 68 -13.5t56 -36.5t38 -54.5t14 -67.5t-14.5 -67t-38.5 -54t-56 -36.5t-67 -13.5t-67 13.5t-56 36.5
t-38.5 54t-14.5 67t14 67.5t38 54.5t56 36.5t68 13.5zM597 744l-440 -760l-46 25l441 761zM193 710q-23 0 -44 -9t-37 -24t-25.5 -35.5t-9.5 -43.5t9.5 -43t25.5 -35t37 -24t44 -9t44 9t37 24t25.5 35t9.5 43t-9.5 43.5t-25.5 35.5t-37 24t-44 9zM193 770q36 0 68 -13.5
t56 -36.5t38 -54.5t14 -67.5t-14.5 -67t-38.5 -54t-56 -36.5t-67 -13.5t-67 13.5t-56 36.5t-38.5 54t-14.5 67t14 67.5t38 54.5t56 36.5t68 13.5z" />
    <glyph glyph-name="ampersand" unicode="&#x26;" horiz-adv-x="692" 
d="M510 102q-43 -51 -101 -84.5t-125 -33.5q-47 0 -89 16.5t-73.5 46t-50 70t-18.5 89.5q0 36 10.5 64.5t28.5 52t42 43.5t51 40l47 34q-32 34 -57.5 75.5t-25.5 89.5q0 39 13.5 69.5t36.5 52t55 32.5t69 11q34 0 65.5 -10.5t55.5 -31t38.5 -49.5t14.5 -66q0 -32 -12.5 -59
t-32.5 -50t-44 -42.5t-48 -36.5l157 -190l88 102l60 -62l-92 -108l135 -167h-116zM319 498q14 11 30 23t29.5 25.5t22 30t8.5 37.5q0 40 -25 61t-63 21q-34 0 -59 -22t-25 -58q0 -29 14 -51t31 -43l25 -32zM278 366q-20 -14 -43.5 -30t-44.5 -36t-35 -43t-14 -50t11.5 -52
t31 -44.5t45 -31t52.5 -11.5q26 0 50 9t45.5 23.5t40.5 32t37 35.5l-167 204z" />
    <glyph glyph-name="quotesingle" unicode="'" horiz-adv-x="277" 
d="M188 754l-18 -328h-62l-18 328h98z" />
    <glyph glyph-name="parenleft" unicode="(" horiz-adv-x="292" 
d="M235 754q-24 -50 -40 -105t-26.5 -112.5t-15 -115.5t-4.5 -113t4.5 -113t15 -115.5t26.5 -113t40 -104.5l-74 -55q-28 54 -47.5 116.5t-32 128t-18.5 131t-6 125.5q0 61 6 126.5t18.5 130.5t32 127.5t47.5 116.5z" />
    <glyph glyph-name="parenright" unicode=")" horiz-adv-x="292" 
d="M131 809q28 -54 47.5 -116.5t32 -127.5t18.5 -130.5t6 -126.5q0 -60 -6 -125.5t-18.5 -131t-32 -128t-47.5 -116.5l-74 55q24 49 40 104.5t26.5 113t15 115.5t4.5 113t-4.5 113t-15 115.5t-26.5 112.5t-40 105z" />
    <glyph glyph-name="asterisk" unicode="*" horiz-adv-x="432" 
d="M253 754v-95l81 48l35 -59l-85 -50l85 -50l-35 -58l-81 50v-96h-69v97l-87 -49l-34 57l85 49l-84 50l31 57l89 -49v98h69z" />
    <glyph glyph-name="plus" unicode="+" 
d="M332 512v-213h213v-86h-213v-213h-86v213h-213v86h213v213h86z" />
    <glyph glyph-name="comma" unicode="," horiz-adv-x="289" 
d="M242 88l-133 -267l-55 23l110 275z" />
    <glyph glyph-name="hyphenminus" unicode="-" horiz-adv-x="332" 
d="M276 358v-75h-219v75h219z" />
    <glyph glyph-name="period" unicode="." horiz-adv-x="289" 
d="M145 100q24 0 41 -17.5t17 -40.5q0 -24 -17 -41t-41 -17t-41 17t-17 41q0 23 17 40.5t41 17.5z" />
    <glyph glyph-name="slash" unicode="/" horiz-adv-x="551" 
d="M520 836l-417 -962l-71 32l416 962z" />
    <glyph glyph-name="zero" unicode="0" 
d="M289 690q-51 0 -84 -34t-53 -83t-28 -102.5t-8 -92.5q0 -26 3.5 -59t11.5 -67.5t21 -67.5t32 -59t45 -41.5t60 -15.5t60 15.5t45 41.5t32 59t21 67.5t11.5 67.5t3.5 59q0 39 -8 92.5t-28 102.5t-53 83t-84 34zM289 -16q-48 0 -86.5 18.5t-68 49t-50 71t-33.5 84t-19 87.5
t-6 83t6 83t19 87.5t33.5 84t49.5 71t67.5 49t87.5 18.5t87.5 -18.5t67.5 -49t49.5 -71t33.5 -84t19 -87.5t6 -83q0 -38 -6 -82.5t-19 -88t-33.5 -84t-50 -71t-68 -49t-86.5 -18.5z" />
    <glyph glyph-name="one" unicode="1" 
d="M123 668l52 86h169v-754h-90v668h-131z" />
    <glyph glyph-name="two" unicode="2" 
d="M532 86v-86h-487l330 405q12 14 23.5 30t21.5 33t16 35t6 37q0 30 -12 56t-32.5 45.5t-47.5 31t-56 11.5t-54.5 -11t-45 -29.5t-31.5 -44t-14 -53.5h-94q6 50 24.5 91.5t49 71t72.5 45.5t93 16q48 0 91 -17t76 -47t52 -71.5t19 -90.5q0 -42 -15 -82.5t-41 -72.5
l-248 -303h304z" />
    <glyph glyph-name="three" unicode="3" 
d="M275 438q30 0 57 6t47.5 20.5t32 37.5t11.5 57q0 28 -10 52t-27.5 41t-41.5 26.5t-52 9.5q-51 0 -84 -29.5t-41 -78.5h-93q14 94 70.5 142t150.5 48q45 0 84.5 -14t69.5 -40.5t47 -64t17 -84.5q0 -56 -24 -99.5t-72 -70.5q56 -26 81.5 -76t25.5 -111q0 -53 -18.5 -95
t-51 -71t-76.5 -44.5t-95 -15.5q-44 0 -85 14t-72.5 40.5t-51 63.5t-21.5 84h91q3 -28 16.5 -50t33 -37.5t44.5 -24t52 -8.5q31 0 57.5 11.5t46 31.5t30 47t10.5 58q0 36 -12 64.5t-33 47.5t-50 28t-64 6v78z" />
    <glyph glyph-name="four" unicode="4" 
d="M379 503h-2l-212 -311h214v311zM555 192v-82h-86v-110h-90v110h-372l462 676v-594h86z" />
    <glyph glyph-name="five" unicode="5" 
d="M291 668l-47 -155l53 3q55 0 99.5 -21.5t76 -58t49 -84.5t17.5 -100q0 -60 -22 -109t-59.5 -84.5t-88.5 -55t-109 -19.5q-35 0 -69 9t-64.5 26t-55.5 41.5t-41 55.5l70 66q9 -24 26.5 -44.5t40.5 -35.5t49 -23.5t51 -8.5q38 0 71.5 14.5t58 40t38.5 59t14 71.5
q0 36 -14.5 68.5t-39 57t-57.5 39t-69 14.5q-40 0 -78 -17.5t-63 -49.5h-18l116 387h302v-86h-237z" />
    <glyph glyph-name="six" unicode="6" 
d="M290 68q31 0 60 12t51.5 33t35.5 49t13 60q0 35 -14 65t-36.5 51.5t-51 33.5t-58.5 12q-31 0 -59.5 -13t-51 -35t-36 -50t-13.5 -59q0 -33 13 -61.5t35 -50.5t51 -34.5t61 -12.5zM447 724l-201 -272l2 -2q17 8 35.5 13t38.5 5q46 0 86 -20t69.5 -53t46 -75.5t16.5 -87.5
q0 -52 -19.5 -97t-53.5 -78.5t-79.5 -53t-96.5 -19.5q-49 0 -94 19t-80 51.5t-56 76.5t-21 94q0 57 24.5 105.5t57.5 93.5l257 346z" />
    <glyph glyph-name="seven" unicode="7" 
d="M47 668v86h543l-470 -770l-73 45l390 639h-390z" />
    <glyph glyph-name="eight" unicode="8" 
d="M289 690q-26 0 -49 -10t-40.5 -28t-28 -41.5t-10.5 -50.5q0 -23 11 -45.5t29 -41t41 -30t47 -11.5t47 11.5t41 30t29 41t11 45.5q0 27 -10.5 50.5t-28 41.5t-41 28t-48.5 10zM53 210q0 30 7.5 58.5t22.5 52.5t37.5 42t51.5 28q-47 26 -73 69.5t-26 99.5q0 46 17 84.5
t46 66.5t68.5 43.5t84.5 15.5t84.5 -15.5t68.5 -43.5t46 -66.5t17 -84.5q0 -56 -26 -99.5t-73 -69.5q29 -10 51.5 -28t37.5 -42t22.5 -52.5t7.5 -58.5q0 -53 -19 -94.5t-51 -71t-75 -45t-91 -15.5t-91 15.5t-75 45t-51 71t-19 94.5zM289 352q-29 0 -55 -11t-46.5 -30
t-32.5 -45t-12 -56q0 -29 12.5 -54.5t33 -45t46.5 -31t54 -11.5t54 11.5t46.5 31t33 45t12.5 54.5q0 30 -12 56t-32.5 45t-47 30t-54.5 11z" />
    <glyph glyph-name="nine" unicode="9" 
d="M302 370q36 0 65.5 13t50.5 35t32.5 50.5t11.5 59.5q0 30 -12.5 58.5t-33.5 50.5t-49 35.5t-59 13.5q-34 0 -64 -12.5t-52.5 -34t-36 -50.5t-13.5 -61q0 -34 14 -63t36.5 -50t51.5 -33t58 -12zM145 31l201 271l-2 2q-17 -8 -35 -11t-38 -3q-47 0 -87 19.5t-69.5 51.5
t-46 74t-16.5 87q0 52 19.5 97t53.5 78.5t79.5 53t96.5 19.5q49 0 94 -19t80 -51.5t56 -76.5t21 -94q0 -57 -24.5 -105.5t-57.5 -93.5l-257 -346z" />
    <glyph glyph-name="colon" unicode=":" horiz-adv-x="289" 
d="M145 482q24 0 41 -17.5t17 -40.5q0 -24 -17 -41t-41 -17t-41 17t-17 41q0 23 17 40.5t41 17.5zM145 100q24 0 41 -17.5t17 -40.5q0 -24 -17 -41t-41 -17t-41 17t-17 41q0 23 17 40.5t41 17.5z" />
    <glyph glyph-name="semicolon" unicode=";" horiz-adv-x="289" 
d="M192 482q24 0 41 -17.5t17 -40.5q0 -24 -17 -41t-41 -17t-41 17t-17 41q0 23 17 40.5t41 17.5zM234 88l-133 -267l-55 23l110 275z" />
    <glyph glyph-name="less" unicode="&#x3c;" 
d="M545 404l-384 -148l384 -148v-94l-512 207v70l512 207v-94z" />
    <glyph glyph-name="equal" unicode="=" 
d="M545 213v-86h-512v86h512zM545 385v-86h-512v86h512z" />
    <glyph glyph-name="greater" unicode="&#x3e;" 
d="M33 498l512 -207v-70l-512 -207v94l384 148l-384 148v94z" />
    <glyph glyph-name="question" unicode="?" horiz-adv-x="453" 
d="M229 100q24 0 41 -17.5t17 -40.5q0 -24 -17 -41t-41 -17t-41 17t-17 41q0 23 17 40.5t41 17.5zM391 345q1 -33 -12 -62t-35.5 -51t-52.5 -35t-62 -13q-33 0 -62.5 12.5t-51.5 34t-34.5 50.5t-12.5 63q0 36 11 60t28.5 40.5t40 27t46.5 19.5q23 9 45.5 17t40 19.5
t28.5 27.5t11 41q0 42 -26 65.5t-66 23.5q-18 0 -33.5 -7t-27 -18.5t-18.5 -27t-7 -33.5q0 -8 2 -16l4 -16h-94l-2 33q-2 37 12.5 68t39.5 53.5t58.5 35.5t68.5 13q38 0 71 -13.5t57 -37t38 -56t14 -70.5q0 -35 -14 -68t-40 -56q-25 -22 -58.5 -34t-65.5 -22q-27 -8 -50 -24
t-23 -49q0 -30 20 -51t50 -21q32 0 52 22.5t19 54.5h91z" />
    <glyph glyph-name="at" unicode="@" horiz-adv-x="800" 
d="M542 568h71l-50 -257q-3 -13 -5.5 -28t-2.5 -28t4.5 -21.5t17.5 -8.5q17 0 36 16t35 43t26.5 61.5t10.5 71.5q0 63 -20.5 113.5t-57 86t-86 54.5t-106.5 19q-63 0 -117.5 -24.5t-95 -67t-63.5 -99.5t-23 -122q0 -69 25.5 -126.5t68.5 -99t100.5 -64.5t121.5 -23
q63 0 110 12t76 36l75 -60q-27 -14 -54 -26.5t-58.5 -21.5t-69.5 -14.5t-87 -5.5q-81 0 -151.5 29.5t-123 82t-83 124.5t-30.5 157q0 84 29.5 156t81.5 124.5t121.5 82.5t149.5 30q66 0 125.5 -21t109.5 -66q51 -45 81.5 -102.5t30.5 -127.5q0 -63 -16 -118t-46 -94
q-36 -48 -77 -68.5t-77 -18.5q-21 1 -35 17t-19 45q-26 -26 -58.5 -44t-77.5 -18q-33 0 -63.5 14.5t-53.5 39.5t-37 58.5t-14 72.5q0 45 14.5 88t41 76.5t64 53.5t84.5 20q38 0 70.5 -16t62.5 -55zM503 372q8 61 -21 94t-81 33q-30 0 -54.5 -13.5t-42 -35.5t-26.5 -49.5
t-9 -54.5q0 -22 7 -42.5t20 -36.5t31.5 -25.5t41.5 -9.5q33 0 57 11.5t40 31t25 45t12 52.5z" />
    <glyph glyph-name="A" unicode="A" horiz-adv-x="703" 
d="M352 580l-134 -305h268zM179 189l-86 -189h-101l360 786l360 -786h-101l-86 189h-346z" />
    <glyph glyph-name="B" unicode="B" horiz-adv-x="535" 
d="M64 754h92q53 0 103 -8.5t88.5 -31.5t61.5 -63t23 -104q0 -21 -5.5 -42.5t-16 -41t-25.5 -35t-34 -24.5v-2q33 -6 61 -24t48 -44.5t31 -58t11 -64.5q0 -57 -22 -97t-59 -65.5t-84 -37t-97 -11.5h-176v754zM158 84h72q33 0 64.5 5.5t57 20.5t41 41t15.5 66t-18 65
t-46.5 39t-62.5 19t-65 5h-58v-261zM158 420h24q33 0 62.5 4.5t51.5 18t35 38t13 65.5q0 40 -12.5 64t-34.5 37.5t-51 18t-62 4.5h-26v-250z" />
    <glyph glyph-name="C" unicode="C" horiz-adv-x="661" 
d="M621 610q-41 36 -93 55t-106 19q-63 0 -117.5 -24.5t-94.5 -66.5t-63 -98t-23 -119q0 -62 22.5 -117.5t62.5 -97.5t94 -66.5t117 -24.5q56 0 107.5 20t93.5 58v-111q-44 -26 -96 -39.5t-102 -13.5q-81 0 -152.5 30t-125 82.5t-84.5 123.5t-31 153q0 84 31.5 156.5t86 126
t127.5 84t156 30.5q50 0 98.5 -12.5t91.5 -38.5v-109z" />
    <glyph glyph-name="D" unicode="D" horiz-adv-x="665" 
d="M158 86h33q72 0 137 14.5t114 48.5t78 90t29 138t-29 138t-78 90t-114 48.5t-137 14.5h-33v-582zM64 754h156q87 0 163.5 -23t134.5 -69.5t91.5 -116.5t33.5 -164q0 -96 -33 -168t-90.5 -119t-135.5 -70.5t-167 -23.5h-153v754z" />
    <glyph glyph-name="E" unicode="E" horiz-adv-x="521" 
d="M72 754h405v-86h-311v-211h302v-86h-302v-285h311v-86h-405v754z" />
    <glyph glyph-name="F" unicode="F" horiz-adv-x="474" 
d="M165 668v-212h262v-86h-262v-370h-94v754h365v-86h-271z" />
    <glyph glyph-name="G" unicode="G" horiz-adv-x="780" 
d="M759 380v-30q0 -78 -26 -144.5t-73.5 -116t-113 -77.5t-144.5 -28t-148.5 31.5t-121 85.5t-81.5 125t-30 149q0 81 30.5 153t83.5 126t124.5 85t152.5 31q88 0 169.5 -38t137.5 -108l-66 -63q-41 55 -104.5 89t-132.5 34q-63 0 -118 -24t-95.5 -65.5t-64 -97.5
t-23.5 -119q0 -59 23 -114.5t62.5 -98.5t93 -69t114.5 -26q44 0 87.5 17.5t78.5 48t57 71.5t24 87h-195v86h299z" />
    <glyph glyph-name="H" unicode="H" horiz-adv-x="675" 
d="M517 450v304h94v-754h-94v362h-359v-362h-94v754h94v-304h359z" />
    <glyph glyph-name="I" unicode="I" horiz-adv-x="232" 
d="M163 0h-94v754h94v-754z" />
    <glyph glyph-name="J" unicode="J" horiz-adv-x="362" 
d="M303 754v-479q0 -54 -7 -106.5t-29 -93.5t-62 -66t-106 -25q-33 0 -61.5 8t-56.5 25l47 80q33 -25 75 -25q40 0 62 21t31.5 51.5t11 66t1.5 64.5v479h94z" />
    <glyph glyph-name="K" unicode="K" horiz-adv-x="600" 
d="M486 754h123l-339 -339l345 -415h-127l-284 351l-38 -36v-315h-94v754h94v-327z" />
    <glyph glyph-name="L" unicode="L" horiz-adv-x="385" 
d="M166 86h229v-86h-323v754h94v-668z" />
    <glyph glyph-name="M" unicode="M" horiz-adv-x="851" 
d="M200 498h-2l-88 -498h-97l154 786l259 -594l259 594l154 -786h-97l-88 498h-2l-226 -514z" />
    <glyph glyph-name="N" unicode="N" horiz-adv-x="785" 
d="M63 790l566 -593v557h94v-785l-566 593v-562h-94v790z" />
    <glyph glyph-name="O" unicode="O" horiz-adv-x="828" 
d="M414 72q61 0 115.5 23.5t96 64.5t65.5 96.5t24 120.5q0 62 -22 117.5t-62 97t-95.5 66t-121.5 24.5t-121.5 -24.5t-95.5 -66t-62 -97t-22 -117.5q0 -65 24 -120.5t65.5 -96.5t96 -64.5t115.5 -23.5zM414 770q81 0 153 -31t125.5 -84.5t85 -125t31.5 -152.5
q0 -84 -31 -156t-84.5 -124.5t-125.5 -82.5t-154 -30t-154 30t-125.5 82.5t-84.5 124.5t-31 156q0 81 31.5 152.5t85 125t125.5 84.5t153 31z" />
    <glyph glyph-name="P" unicode="P" horiz-adv-x="495" 
d="M166 400h30q36 0 71.5 4.5t64 19.5t46.5 42t18 72q0 44 -19 70.5t-48.5 40t-66 17.5t-71.5 4h-25v-270zM166 0h-94v754h108q87 0 145.5 -14.5t93.5 -42.5t50 -68.5t15 -92.5q0 -60 -21 -101.5t-57 -68t-84 -38.5t-102 -12h-54v-316z" />
    <glyph glyph-name="Q" unicode="Q" horiz-adv-x="828" 
d="M627 166q22 19 38.5 44.5t27.5 53.5t16.5 57t5.5 56q0 62 -22 117.5t-62 97t-95.5 66t-121.5 24.5t-121.5 -24.5t-95.5 -66t-62 -97t-22 -117.5q0 -65 24 -120.5t65.5 -96.5t96 -64.5t115.5 -23.5q35 0 75 10.5t75 32.5l-173 169h117zM694 -16l-65 67q-47 -32 -104 -49.5
t-111 -17.5q-82 0 -154 30t-125.5 82.5t-84.5 124.5t-31 156q0 81 31.5 152.5t85 125t125.5 84.5t153 31t153 -31t125.5 -84.5t85 -125t31.5 -152.5t-31 -153t-87 -125l117 -115h-114z" />
    <glyph glyph-name="R" unicode="R" horiz-adv-x="543" 
d="M166 397h30q36 0 71.5 4.5t64 19.5t46.5 42t18 72q0 44 -19 70.5t-48.5 41t-66 19t-71.5 4.5h-25v-273zM541 0h-114l-222 319h-39v-319h-94v754h114q50 0 102 -5t97 -30q48 -28 73.5 -77t25.5 -103q0 -41 -13 -77t-36.5 -64t-57 -46.5t-74.5 -23.5z" />
    <glyph glyph-name="S" unicode="S" horiz-adv-x="537" 
d="M407 611q-21 35 -49.5 53t-71.5 18q-23 0 -45.5 -7.5t-40.5 -21.5t-29 -33.5t-11 -44.5q0 -22 10 -39t25 -30t33.5 -22.5t36.5 -16.5l54 -21q40 -16 74.5 -35.5t59.5 -46.5t39 -62.5t14 -82.5q0 -51 -18.5 -94.5t-51 -74.5t-76.5 -48.5t-95 -17.5q-46 0 -86 16t-70.5 44
t-50.5 67t-26 84l95 20q0 -31 11 -57.5t31 -45.5t47 -29.5t57 -10.5t55.5 12t44 32t29 46.5t10.5 56.5t-11 52.5t-29.5 39t-42 29t-47.5 22.5l-52 22q-32 14 -62 30.5t-52.5 39t-36 52.5t-13.5 69q0 46 18.5 82t49.5 61t71 38.5t83 13.5q63 0 113 -29.5t81 -84.5z" />
    <glyph glyph-name="T" unicode="T" horiz-adv-x="456" 
d="M275 0h-94v668h-179v86h452v-86h-179v-668z" />
    <glyph glyph-name="U" unicode="U" horiz-adv-x="669" 
d="M153 754v-445q0 -46 8 -89t28.5 -76t56 -52.5t89.5 -19.5t89.5 19.5t56 52.5t28.5 76t8 89v445h94v-477q0 -62 -19 -115.5t-54.5 -93t-86.5 -62t-116 -22.5t-116 22.5t-86.5 62t-54.5 93t-19 115.5v477h94z" />
    <glyph glyph-name="V" unicode="V" horiz-adv-x="640" 
d="M321 196l224 558h103l-327 -794l-328 794h103z" />
    <glyph glyph-name="W" unicode="W" horiz-adv-x="1027" 
d="M301 214l213 556l213 -556l211 540h102l-313 -784l-213 553l-213 -553l-313 784h102z" />
    <glyph glyph-name="X" unicode="X" horiz-adv-x="574" 
d="M29 754h107l154 -275l164 275h107l-217 -359l229 -395h-105l-178 309l-185 -309h-105l237 395z" />
    <glyph glyph-name="Y" unicode="Y" horiz-adv-x="573" 
d="M-6 754h108l185 -322l185 322h108l-246 -426v-328h-94v328z" />
    <glyph glyph-name="Z" unicode="Z" horiz-adv-x="552" 
d="M544 86v-86h-535l382 668h-328v86h481l-382 -668h382z" />
    <glyph glyph-name="bracketleft" unicode="[" horiz-adv-x="311" 
d="M153 -109h98v-84h-190v1002h190v-84h-98v-834z" />
    <glyph glyph-name="backslash" unicode="\" horiz-adv-x="551" 
d="M115 868l404 -868h-84l-404 868h84z" />
    <glyph glyph-name="bracketright" unicode="]" horiz-adv-x="311" 
d="M158 725h-98v84h190v-1002h-190v84h98v834z" />
    <glyph glyph-name="asciicircum" unicode="^" 
d="M233 754h112l200 -446h-94l-162 362l-163 -362h-93z" />
    <glyph glyph-name="underscore" unicode="_" horiz-adv-x="500" 
d="M500 -188h-500v75h500v-75z" />
    <glyph glyph-name="grave" unicode="`" horiz-adv-x="360" 
d="M159 734l125 -166l-44 -27l-164 149z" />
    <glyph glyph-name="a" unicode="a" horiz-adv-x="556" 
d="M501 0h-90v73h-2q-27 -40 -67.5 -64.5t-91.5 -24.5q-54 0 -95.5 20.5t-70 55.5t-43.5 81t-15 96q0 48 15.5 92.5t44 78t69.5 54t92 20.5q52 0 93 -25t69 -67h2v78h90v-468zM264 64q37 0 65 13.5t47.5 37t29.5 54t10 65.5q0 34 -10 64.5t-29.5 53.5t-48 36.5t-64.5 13.5
q-35 0 -62.5 -14t-46.5 -37.5t-29 -53.5t-10 -63t10 -63.5t28.5 -54.5t46 -38t63.5 -14z" />
    <glyph glyph-name="b" unicode="b" horiz-adv-x="556" 
d="M55 868h90v-478h2q28 42 69 67t94 25q51 0 91.5 -20.5t69 -54t44 -78t15.5 -92.5q0 -50 -15 -96t-43.5 -81t-70 -55.5t-95.5 -20.5q-50 0 -91 24.5t-68 64.5h-2v-73h-90v868zM288 64q37 0 65 13.5t47.5 37t29.5 54t10 65.5q0 34 -10 64.5t-29.5 53.5t-48 36.5t-64.5 13.5
q-35 0 -62.5 -14t-46.5 -37.5t-29 -53.5t-10 -63t10 -63.5t28.5 -54.5t46 -38t63.5 -14z" />
    <glyph glyph-name="c" unicode="c" horiz-adv-x="441" 
d="M406 335q-55 63 -134 63q-33 0 -61.5 -13.5t-49.5 -36t-33 -52.5t-12 -62q0 -36 12 -66.5t33.5 -52.5t51 -34.5t65.5 -12.5q39 0 70.5 16.5t57.5 45.5v-115q-31 -17 -62.5 -24t-66.5 -7q-52 0 -97.5 18.5t-79.5 51.5t-54 78t-20 98q0 54 19.5 100.5t54 80t81.5 52.5
t101 19q32 0 64.5 -7.5t59.5 -23.5v-116z" />
    <glyph glyph-name="d" unicode="d" horiz-adv-x="556" 
d="M411 73h-2q-27 -40 -68 -64.5t-91 -24.5q-54 0 -96 20.5t-70.5 55.5t-43 81t-14.5 96q0 48 15.5 92.5t44 78t69 54t91.5 20.5q53 0 94 -25t69 -67h2v478h90v-868h-90v73zM264 64q37 0 65 13.5t47.5 37t29.5 54t10 65.5q0 34 -10 64.5t-29.5 53.5t-48 36.5t-64.5 13.5
q-35 0 -62.5 -14t-46.5 -37.5t-29 -53.5t-10 -63t10 -63.5t28.5 -54.5t46 -38t63.5 -14z" />
    <glyph glyph-name="e" unicode="e" horiz-adv-x="488" 
d="M383 287q-8 53 -41.5 85t-87.5 32q-53 0 -89 -33t-44 -84h262zM116 219q0 -30 10 -58t28.5 -49.5t44.5 -34.5t58 -13q52 0 83 24.5t57 66.5l76 -43q-33 -61 -90.5 -94.5t-126.5 -33.5q-54 0 -96.5 19t-72 52t-45.5 78t-16 97q0 54 14.5 100t43 80t71 53t99.5 19
q56 0 97 -19.5t68 -53t40.5 -79t13.5 -97.5v-14h-357z" />
    <glyph glyph-name="f" unicode="f" horiz-adv-x="275" 
d="M294 777q-14 6 -30 12.5t-30 6.5q-24 0 -37 -13.5t-19 -33t-7 -41.5t-1 -39v-201h124v-84h-124v-384h-90v384h-41v84h41v228q0 38 7.5 71.5t24.5 58.5t46 39.5t73 14.5q33 0 63 -12v-91z" />
    <glyph glyph-name="g" unicode="g" horiz-adv-x="555" 
d="M500 9q0 -60 -10 -111t-35.5 -88t-70 -57.5t-112.5 -20.5q-49 0 -90 14.5t-71 42t-47 66.5t-18 89h90q0 -63 39 -97.5t101 -34.5q42 0 68 13.5t40.5 36.5t20 54.5t5.5 67.5v89h-2q-27 -40 -68 -64.5t-91 -24.5q-54 0 -96 20.5t-70.5 55.5t-43 81t-14.5 96q0 48 15.5 92.5
t44 78t69 54t91.5 20.5q53 0 94 -25t69 -69h2v80h90v-459zM263 64q37 0 65 13.5t47.5 37t29.5 54t10 65.5q0 34 -10 64.5t-29.5 53.5t-48 36.5t-64.5 13.5q-35 0 -62.5 -14t-46.5 -37.5t-29 -53.5t-10 -63t10 -63.5t28.5 -54.5t46 -38t63.5 -14z" />
    <glyph glyph-name="h" unicode="h" horiz-adv-x="523" 
d="M152 868v-463h2q21 38 59.5 57.5t81.5 19.5q49 0 81.5 -15.5t51 -43t26 -64.5t7.5 -80v-279h-90v268q0 30 -3 54.5t-14 42.5t-31.5 27.5t-54.5 9.5q-44 0 -67.5 -17.5t-34 -44.5t-12.5 -60t-2 -65v-215h-90v868h90z" />
    <glyph glyph-name="i" unicode="i" horiz-adv-x="254" 
d="M127 745q26 0 44 -18.5t18 -44.5t-18 -43.5t-44 -17.5t-44 17.5t-18 43.5t18 44.5t44 18.5zM172 0h-90v468h90v-468z" />
    <glyph glyph-name="j" unicode="j" horiz-adv-x="254" 
d="M127 745q26 0 44 -18.5t18 -44.5t-18 -43.5t-44 -17.5t-44 17.5t-18 43.5t18 44.5t44 18.5zM172 -268h-90v736h90v-736z" />
    <glyph glyph-name="k" unicode="k" horiz-adv-x="462" 
d="M158 292l176 176h119l-200 -194l220 -274h-117l-167 213l-31 -31v-182h-90v868h90v-576z" />
    <glyph glyph-name="l" unicode="l" horiz-adv-x="222" 
d="M156 0h-90v868h90v-868z" />
    <glyph glyph-name="m" unicode="m" horiz-adv-x="767" 
d="M149 409h2q20 31 53 52t71 21q46 0 79 -22t56 -61q22 38 60.5 60.5t83.5 22.5q46 0 76 -16.5t47.5 -44.5t24.5 -64.5t7 -76.5v-280h-90v265q0 22 -2.5 46.5t-11.5 44.5t-26 33t-47 13q-36 0 -56.5 -17t-31 -42.5t-13 -55.5t-2.5 -57v-230h-90v248q0 23 -2 50t-10 50
t-25.5 38.5t-48.5 15.5q-36 0 -57 -16.5t-31.5 -42t-13 -56t-2.5 -57.5v-230h-90v468h90v-59z" />
    <glyph glyph-name="n" unicode="n" horiz-adv-x="523" 
d="M152 405h2q21 38 59.5 57.5t81.5 19.5q49 0 81.5 -15.5t51 -43t26 -64.5t7.5 -80v-279h-90v268q0 30 -3 54.5t-14 42.5t-31.5 27.5t-54.5 9.5q-44 0 -67.5 -17.5t-34 -44.5t-12.5 -60t-2 -65v-215h-90v468h90v-63z" />
    <glyph glyph-name="o" unicode="o" horiz-adv-x="540" 
d="M270 396q-33 0 -62.5 -13t-51 -35t-34 -52t-12.5 -63t12.5 -62.5t34 -52t51 -35.5t62.5 -13t62.5 13t51 35.5t34 52t12.5 62.5t-12.5 63t-34 52t-51 35t-62.5 13zM270 482q52 0 98 -19t79.5 -52.5t53 -79t19.5 -98.5t-19.5 -98.5t-53 -79t-79.5 -52.5t-98 -19
q-53 0 -98.5 19t-79 52.5t-53 79t-19.5 98.5t19.5 98.5t53 79t79 52.5t98.5 19z" />
    <glyph glyph-name="p" unicode="p" horiz-adv-x="556" 
d="M145 390h2q28 42 69 67t94 25q51 0 91.5 -20.5t69 -54t44 -78t15.5 -92.5q0 -50 -15 -96t-43.5 -81t-70 -55.5t-95.5 -20.5q-50 0 -91 24.5t-68 64.5h-2v-341h-90v736h90v-78zM288 64q37 0 65 13.5t47.5 37t29.5 54t10 65.5q0 34 -10 64.5t-29.5 53.5t-48 36.5
t-64.5 13.5q-35 0 -62.5 -14t-46.5 -37.5t-29 -53.5t-10 -63t10 -63.5t28.5 -54.5t46 -38t63.5 -14z" />
    <glyph glyph-name="q" unicode="q" horiz-adv-x="556" 
d="M501 -268h-90v341h-2q-27 -40 -68 -64.5t-91 -24.5q-54 0 -96 20.5t-70.5 55.5t-43 81t-14.5 96q0 48 15.5 92.5t44 78t69 54t91.5 20.5q53 0 94 -25t69 -67h2v78h90v-736zM264 64q37 0 65 13.5t47.5 37t29.5 54t10 65.5q0 34 -10 64.5t-29.5 53.5t-48 36.5t-64.5 13.5
q-35 0 -62.5 -14t-46.5 -37.5t-29 -53.5t-10 -63t10 -63.5t28.5 -54.5t46 -38t63.5 -14z" />
    <glyph glyph-name="r" unicode="r" horiz-adv-x="351" 
d="M158 392h3q17 42 50 66t78 24q20 0 38.5 -6t35.5 -17l-41 -82q-12 11 -25.5 15t-29.5 4q-36 0 -58 -15.5t-33 -39.5t-14.5 -53.5t-3.5 -57.5v-230h-90v468h90v-76z" />
    <glyph glyph-name="s" unicode="s" horiz-adv-x="384" 
d="M250 361q-8 17 -24 29t-36 12q-19 0 -34 -13t-15 -33q0 -15 9.5 -26.5t24.5 -21.5t34.5 -18.5t40.5 -17.5t40.5 -20.5t34.5 -27.5t24 -36.5t9 -48.5q0 -33 -13 -61.5t-35 -49.5t-51 -32.5t-62 -11.5q-26 0 -50.5 7t-46.5 20.5t-39 33t-26 44.5l77 35q14 -26 33.5 -43
t51.5 -17q29 0 50 18t21 48q0 19 -8.5 29.5t-24.5 21.5l-88 47q-20 10 -36.5 21t-28.5 24.5t-18.5 31t-6.5 41.5q0 28 11 53t29.5 43.5t43.5 29t54 10.5q43 0 76 -22t52 -60z" />
    <glyph glyph-name="t" unicode="t" horiz-adv-x="240" 
d="M165 0h-90v384h-49v84h49v179h90v-179h88v-84h-88v-384z" />
    <glyph glyph-name="u" unicode="u" horiz-adv-x="512" 
d="M148 468v-259q0 -28 4.5 -53.5t16.5 -45t33 -31t54 -11.5t54 11.5t33 31t16.5 45t4.5 53.5v259h90v-269q0 -48 -11.5 -87.5t-35.5 -68t-61.5 -44t-89.5 -15.5t-89.5 15.5t-61.5 44t-35.5 68t-11.5 87.5v269h90z" />
    <glyph glyph-name="v" unicode="v" horiz-adv-x="445" 
d="M222 176l135 292h101l-236 -484l-235 484h101z" />
    <glyph glyph-name="w" unicode="w" horiz-adv-x="718" 
d="M222 170l138 324l137 -324l136 298h102l-238 -484l-137 313l-138 -313l-238 484h102z" />
    <glyph glyph-name="x" unicode="x" horiz-adv-x="489" 
d="M27 468h106l111 -151l121 151h109l-172 -214l201 -254h-105l-154 190l-149 -190h-109l209 254z" />
    <glyph glyph-name="y" unicode="y" horiz-adv-x="484" 
d="M-13 468h105l158 -297l147 297h101l-379 -736h-102l184 348z" />
    <glyph glyph-name="z" unicode="z" horiz-adv-x="495" 
d="M481 84v-84h-479l317 384h-263v84h438l-317 -384h304z" />
    <glyph glyph-name="braceleft" unicode="{" horiz-adv-x="334" 
d="M48 344q38 17 56.5 55.5t18.5 95.5v182q0 30 9 54.5t22 41.5t28 26.5t26 9.5h78v-84h-40q-23 0 -27 -18.5t-4 -43.5v-184q0 -43 -10 -74t-23 -51.5t-25.5 -32t-17.5 -14.5q5 -3 17.5 -14t25.5 -31.5t23 -51.5t10 -74v-184q0 -25 4 -43.5t27 -18.5h40v-84h-78
q-11 0 -26 9.5t-28 26.5t-22 41.5t-9 54.5v182q0 57 -18.5 95.5t-56.5 55.5v73z" />
    <glyph glyph-name="bar" unicode="|" horiz-adv-x="570" 
d="M328 0h-86v868h86v-868z" />
    <glyph glyph-name="braceright" unicode="}" horiz-adv-x="334" 
d="M286 271q-38 -17 -56.5 -55.5t-18.5 -95.5v-182q0 -30 -9 -54.5t-22 -41.5t-28 -26.5t-26 -9.5h-78v84h40q23 0 27 18.5t4 43.5v184q0 43 10 74t23 51.5t25.5 31.5t17.5 14q-5 3 -17.5 14.5t-25.5 32t-23 51.5t-10 74v184q0 25 -4 43.5t-27 18.5h-40v84h78q11 0 26 -9.5
t28 -26.5t22 -41.5t9 -54.5v-182q0 -57 18.5 -95.5t56.5 -55.5v-73z" />
    <glyph glyph-name="asciitilde" unicode="~" 
d="M545 284q-11 -21 -26 -42.5t-34 -39t-42 -29t-50 -11.5q-28 0 -57.5 16t-57.5 35t-51 35t-39 16q-26 0 -47 -21.5t-45 -60.5l-63 45q13 19 28.5 41t34.5 40t41 30t49 12q37 0 67 -16t55 -35t45.5 -35t38.5 -16q14 0 25 6.5t21 18t19.5 27t20.5 34.5z" />
    <glyph glyph-name="Euro" 
d="M568 644q-36 22 -70.5 31t-87.5 9q-58 0 -99.5 -19.5t-70 -51t-45.5 -71.5t-24 -82h357l-14 -58h-351q-1 -12 -1 -14v-12q0 -14 1 -24t3 -24h323l-14 -58h-299q8 -38 25.5 -74t46 -64t68 -45t92.5 -17q23 0 42.5 2t38.5 7.5t38 15.5t41 25v-101q-26 -14 -64.5 -24.5
t-92.5 -10.5q-63 0 -118.5 18t-99.5 53.5t-74 89t-42 125.5h-77l14 58h56q-1 14 -1.5 22.5t-0.5 22.5v9v6t0.5 5t0.5 9h-68l14 58h60q13 78 44.5 136.5t77 97t102.5 57.5t120 19q18 0 40 -2.5t45 -7.5t45 -13t40 -18z" />
    <glyph glyph-name="Euro" unicode="&#x20ac;" 
d="M568 644q-36 22 -70.5 31t-87.5 9q-58 0 -99.5 -19.5t-70 -51t-45.5 -71.5t-24 -82h357l-14 -58h-351q-1 -12 -1 -14v-12q0 -14 1 -24t3 -24h323l-14 -58h-299q8 -38 25.5 -74t46 -64t68 -45t92.5 -17q23 0 42.5 2t38.5 7.5t38 15.5t41 25v-101q-26 -14 -64.5 -24.5
t-92.5 -10.5q-63 0 -118.5 18t-99.5 53.5t-74 89t-42 125.5h-77l14 58h56q-1 14 -1.5 22.5t-0.5 22.5v9v6t0.5 5t0.5 9h-68l14 58h60q13 78 44.5 136.5t77 97t102.5 57.5t120 19q18 0 40 -2.5t45 -7.5t45 -13t40 -18z" />
    <glyph glyph-name="Zcaron" horiz-adv-x="552" 
d="M174 1020l101 -96l102 96l59 -46l-161 -145l-159 145zM544 86v-86h-535l382 668h-328v86h481l-382 -668h382z" />
    <glyph glyph-name="Zcaron" unicode="&#x17d;" horiz-adv-x="552" 
d="M174 1020l101 -96l102 96l59 -46l-161 -145l-159 145zM544 86v-86h-535l382 668h-328v86h481l-382 -668h382z" />
    <glyph glyph-name="zcaron" horiz-adv-x="495" 
d="M146 734l101 -96l102 96l59 -46l-161 -145l-159 145zM481 84v-84h-479l317 384h-263v84h438l-317 -384h304z" />
    <glyph glyph-name="zcaron" unicode="&#x17e;" horiz-adv-x="495" 
d="M146 734l101 -96l102 96l59 -46l-161 -145l-159 145zM481 84v-84h-479l317 384h-263v84h438l-317 -384h304z" />
    <glyph glyph-name="nonbreakingspace" unicode="&#xa0;" horiz-adv-x="289" 
 />
    <glyph glyph-name="exclamdown" unicode="&#xa1;" horiz-adv-x="321" 
d="M206 323v-581h-90v581h90zM161 508q24 0 41 -17.5t17 -40.5q0 -24 -17 -41t-41 -17t-41 17t-17 41q0 23 17 40.5t41 17.5z" />
    <glyph glyph-name="cent" unicode="&#xa2;" 
d="M308 539q-27 -3 -49 -19t-37.5 -39t-24.5 -49.5t-9 -50.5q0 -27 8.5 -53.5t24 -48.5t37.5 -37.5t50 -21.5v319zM356 628q32 -2 63 -8.5t59 -22.5v-115h-2q-21 28 -52.5 45t-67.5 18v-328q38 5 67 19.5t55 42.5v-117q-50 -24 -105 -28l-17 -1v-85h-48v89q-45 7 -83.5 28
t-66 53t-43 72.5t-15.5 86.5t15 88.5t42.5 75.5t65.5 55.5t85 29.5v78h48v-76z" />
    <glyph glyph-name="sterling" unicode="&#xa3;" 
d="M11 24q13 24 28 44t33 35t41 24t52 10q13 43 14 83.5t-22 80.5h-129v58h100q-21 40 -39.5 87.5t-18.5 92.5q0 49 21 91t55.5 73t79 49t91.5 18q53 0 96 -17t74 -48t49 -74t21 -95l-90 -34v28q0 31 -11 58.5t-30.5 48.5t-46 33t-58.5 12q-31 0 -60 -13.5t-51.5 -35
t-36 -48.5t-13.5 -54q0 -26 7.5 -49t18 -44t23 -40.5t22.5 -38.5h148v-58h-124q14 -47 14 -86t-14 -86l74 -26q21 -8 46 -18.5t48 -10.5q15 0 27.5 7t22.5 18t18 24t15 25l75 -46q-21 -50 -60 -84t-96 -34q-32 0 -65.5 10t-65.5 23t-61 22.5t-55 9.5q-35 0 -55.5 -17.5
t-32.5 -47.5z" />
    <glyph glyph-name="currency" unicode="&#xa4;" 
d="M289 130q36 0 68 13.5t55.5 36.5t37.5 54t14 66q0 37 -13 68.5t-36.5 54t-56 35t-69.5 12.5q-38 0 -70 -12.5t-55.5 -35t-37 -54t-12.5 -68.5q1 -35 14.5 -66t37 -54t55.5 -36.5t68 -13.5zM543 486l-41 -44q20 -31 31 -65t11 -77t-11 -77t-31 -65l41 -44l-60 -60l-46 44
q-29 -22 -64.5 -35t-83.5 -13t-83.5 13t-64.5 35l-46 -44l-60 60l41 44q-20 31 -31 65t-11 77t11 77t31 65l-41 44l60 60l46 -44q29 22 64.5 35t83.5 13t83.5 -13t64.5 -35l46 44z" />
    <glyph glyph-name="yen" unicode="&#xa5;" 
d="M336 0h-94v260h-236v58h236v10l-54 94h-182v58h148l-158 274h108l185 -322l185 322h108l-158 -274h148v-58h-181l-55 -94v-10h236v-58h-236v-260z" />
    <glyph glyph-name="brokenbar" unicode="&#xa6;" horiz-adv-x="570" 
d="M328 521h-86v347h86v-347zM328 0h-86v347h86v-347z" />
    <glyph glyph-name="section" unicode="&#xa7;" 
d="M169 261q-27 13 -50.5 26.5t-41 31t-27.5 41.5t-10 58q0 55 27 92.5t69 69.5q-21 24 -32.5 51.5t-11.5 59.5q0 38 16 70.5t42.5 56t61 37t71.5 13.5q38 0 73 -11t62 -32.5t44 -53t20 -71.5h-87q-1 22 -11.5 38.5t-26 27.5t-35 17t-39.5 6q-21 0 -39.5 -8t-32 -21.5
t-21.5 -31.5t-8 -39q0 -20 7 -35.5t19 -27.5t27.5 -21t31.5 -17l133 -67q23 -12 47.5 -25.5t44.5 -31t33 -40t13 -52.5q0 -50 -24.5 -95t-64.5 -74q53 -50 53 -122q0 -45 -17.5 -80.5t-47 -60.5t-68 -38.5t-80.5 -13.5q-48 0 -89.5 14.5t-72 42.5t-47.5 68t-17 90v15h89
q-1 -30 8.5 -57t27.5 -47.5t43 -32t57 -11.5q24 0 46 8t39.5 23t28 36t10.5 46q0 22 -9.5 38.5t-24.5 29.5t-33 22.5t-35 18.5zM389 248q26 17 43 45.5t17 59.5q0 18 -6.5 31.5t-17 23.5t-24.5 18t-28 15l-184 93q-27 -17 -43.5 -45.5t-16.5 -60.5q0 -19 7.5 -33t20 -25
t27.5 -19.5t30 -15.5z" />
    <glyph glyph-name="dieresis" unicode="&#xa8;" horiz-adv-x="470" 
d="M341 694q25 0 42.5 -17.5t17.5 -42.5q0 -26 -17.5 -43.5t-42.5 -17.5q-26 0 -43.5 17.5t-17.5 43.5q0 25 17.5 42.5t43.5 17.5zM130 694q25 0 42.5 -17.5t17.5 -42.5q0 -26 -17.5 -43.5t-42.5 -17.5q-26 0 -43.5 17.5t-17.5 43.5q0 25 17.5 42.5t43.5 17.5z" />
    <glyph glyph-name="copyright" unicode="&#xa9;" horiz-adv-x="800" 
d="M539 458q-9 42 -42 63.5t-83 21.5q-41 0 -69.5 -14t-47.5 -37t-27.5 -51.5t-8.5 -58.5q0 -35 10 -65t30 -52t48.5 -34.5t66.5 -12.5q50 0 81 22.5t42 66.5h61q-5 -36 -21.5 -64t-41 -48t-56 -30.5t-65.5 -10.5q-50 0 -90.5 17.5t-69 48.5t-44 72t-15.5 88q0 49 15 90.5
t43 72t68.5 47.5t91.5 17q70 0 120.5 -39.5t64.5 -109.5h-61zM400 706q-68 0 -128 -25.5t-105 -69.5t-71 -104t-26 -130q0 -69 26 -129.5t71 -104.5t105 -69.5t128 -25.5q67 0 127 25.5t105 69.5t71.5 104.5t26.5 129.5q0 70 -26.5 130t-71.5 104t-105 69.5t-127 25.5z
M400 -16q-83 0 -154.5 30.5t-125 84t-84 125t-30.5 153.5t30.5 153.5t84 125t125 84t154.5 30.5q82 0 154 -30.5t125.5 -84t84 -125t30.5 -153.5t-30.5 -153.5t-84 -125t-125.5 -84t-154 -30.5z" />
    <glyph glyph-name="ordfeminine" unicode="&#xaa;" horiz-adv-x="334" 
d="M12 368v48h310v-48h-310zM322 481h-59v43h-2q-17 -23 -43.5 -38t-59.5 -15q-35 0 -62 12.5t-46 33.5t-28.5 48.5t-9.5 57.5q0 29 10 55.5t29 47t45.5 32.5t59.5 12q34 0 60.5 -15t45.5 -40h-1h2v46h59v-280zM167 519q24 0 42.5 8t31 22t19 32.5t6.5 39.5q0 42 -25.5 71.5
t-73.5 29.5q-23 0 -40.5 -8.5t-30 -22.5t-19 -32.5t-6.5 -37.5q0 -20 6.5 -38.5t18.5 -32.5t30 -22.5t41 -8.5z" />
    <glyph glyph-name="guillemotleft" unicode="&#xab;" horiz-adv-x="523" 
d="M268 129l-56 -41l-182 232l182 240l56 -41l-149 -199zM460 129l-56 -41l-182 232l182 240l56 -41l-149 -199z" />
    <glyph glyph-name="logicalnot" unicode="&#xac;" 
d="M459 299h-426v86h512v-270h-86v184z" />
    <glyph glyph-name="hyphen" unicode="&#xad;" horiz-adv-x="332" 
d="M276 358v-75h-219v75h219z" />
    <glyph glyph-name="hyphen" unicode="&#x2010;" horiz-adv-x="332" 
d="M276 358v-75h-219v75h219z" />
    <glyph glyph-name="registered" unicode="&#xae;" horiz-adv-x="800" 
d="M312 531v-110h68q22 0 47 -0.5t46 3t35 14t14 33.5q0 21 -8 33t-22 18t-32 7.5t-38 1.5h-110zM580 153h-73l-113 204h-82v-204h-64v442h186q30 0 57.5 -5t48.5 -18.5t33.5 -36t12.5 -57.5q0 -33 -10 -55.5t-26.5 -37t-38 -21t-43.5 -7.5zM400 706q-68 0 -128 -25.5
t-105 -69.5t-71 -104t-26 -130q0 -69 26 -129.5t71 -104.5t105 -69.5t128 -25.5q67 0 127 25.5t105 69.5t71.5 104.5t26.5 129.5q0 70 -26.5 130t-71.5 104t-105 69.5t-127 25.5zM400 -16q-83 0 -154.5 30.5t-125 84t-84 125t-30.5 153.5t30.5 153.5t84 125t125 84
t154.5 30.5q82 0 154 -30.5t125.5 -84t84 -125t30.5 -153.5t-30.5 -153.5t-84 -125t-125.5 -84t-154 -30.5z" />
    <glyph glyph-name="macron" unicode="&#xaf;" horiz-adv-x="500" 
d="M431 694v-68h-361v68h361z" />
    <glyph glyph-name="degree" unicode="&#xb0;" horiz-adv-x="400" 
d="M199 720q-21 0 -39 -8t-31.5 -21.5t-21 -31.5t-7.5 -39q0 -43 28.5 -71.5t71.5 -28.5q42 0 71 28.5t29 71.5q0 21 -8 39t-21.5 31.5t-32 21.5t-39.5 8zM350 620q0 -31 -12 -58.5t-32.5 -47.5t-47.5 -32t-58 -12t-58.5 12t-47.5 32t-32 47.5t-12 58.5t11.5 58t32 47.5
t48 32.5t58.5 12t58 -12t47.5 -32.5t32.5 -47.5t12 -58z" />
    <glyph glyph-name="plusminus" unicode="&#xb1;" 
d="M332 562v-173h213v-86h-213v-173h-86v173h-213v86h213v173h86zM33 86h512v-86h-512v86z" />
    <glyph glyph-name="twosuperior" unicode="&#xb2;" horiz-adv-x="346" 
d="M332 360v-58h-317l215 243q15 17 26.5 37.5t11.5 43.5q0 18 -8.5 32.5t-21.5 25t-29.5 16.5t-31.5 6q-37 0 -61.5 -21t-26.5 -55h-67q7 60 47.5 97t107.5 37q31 0 59 -10t49.5 -28t34 -43t12.5 -55q0 -25 -8.5 -50t-24.5 -43l-155 -175h188z" />
    <glyph glyph-name="threesuperior" unicode="&#xb3;" horiz-adv-x="346" 
d="M163 576q42 0 68 16.5t26 50.5q0 17 -7 30t-19 21.5t-27 13t-30 4.5q-29 0 -52 -13.5t-23 -42.5h-67q9 56 46 85t98 29q29 0 55.5 -8.5t46.5 -24t31.5 -38.5t11.5 -51q0 -33 -17 -59t-49 -43q36 -16 54.5 -45.5t18.5 -66.5q0 -32 -12.5 -57t-34.5 -42.5t-51 -27t-62 -9.5
q-29 0 -55 8.5t-46.5 24.5t-33.5 38.5t-14 50.5h64q5 -34 28.5 -49t61.5 -15q36 0 63.5 21.5t27.5 58.5q0 39 -29.5 61.5t-71.5 20.5v58z" />
    <glyph glyph-name="acute" unicode="&#xb4;" horiz-adv-x="360" 
d="M284 690l-164 -149l-44 27l125 166z" />
    <glyph glyph-name="mu" unicode="&#xb5;" horiz-adv-x="512" 
d="M148 468v-259q0 -28 4.5 -53.5t16.5 -45t33 -31t54 -11.5t54 11.5t33 31t16.5 45t4.5 53.5v259h90v-269q0 -48 -11.5 -87.5t-35.5 -68t-61.5 -44t-89.5 -15.5q-30 0 -59 13.5t-49 30.5v-296h-90v736h90z" />
    <glyph glyph-name="paragraph" unicode="&#xb6;" 
d="M538 670h-61v-823h-84v823h-62v-823h-84v436q-42 0 -78.5 14.5t-63.5 42t-43.5 67t-20.5 90.5q-3 45 11.5 91t43 83t69.5 60t91 23h282v-84z" />
    <glyph glyph-name="periodcentered" unicode="&#xb7;" horiz-adv-x="289" 
d="M145 314q24 0 41 -17.5t17 -40.5q0 -24 -17 -41t-41 -17t-41 17t-17 41q0 23 17 40.5t41 17.5z" />
    <glyph glyph-name="periodcentered" unicode="&#x22c5;" horiz-adv-x="289" 
d="M145 314q24 0 41 -17.5t17 -40.5q0 -24 -17 -41t-41 -17t-41 17t-17 41q0 23 17 40.5t41 17.5z" />
    <glyph glyph-name="periodcentered" unicode="&#x2219;" horiz-adv-x="289" 
d="M145 314q24 0 41 -17.5t17 -40.5q0 -24 -17 -41t-41 -17t-41 17t-17 41q0 23 17 40.5t41 17.5z" />
    <glyph glyph-name="cedilla" unicode="&#xb8;" horiz-adv-x="330" 
d="M139 -181l-53 27l87 137l71 -29z" />
    <glyph glyph-name="onesuperior" unicode="&#xb9;" horiz-adv-x="346" 
d="M65 696l34 58h116v-452h-64v394h-86z" />
    <glyph glyph-name="ordmasculine" unicode="&#xba;" horiz-adv-x="324" 
d="M0 368v48h325v-48h-325zM162 718q-44 0 -73.5 -28.5t-29.5 -69.5q0 -20 8 -37.5t22 -30.5t32.5 -21t40.5 -8t41 8t33 21t22 30.5t8 37.5q0 41 -30 69.5t-74 28.5zM162 770q34 0 64 -11.5t52 -31.5t34.5 -47.5t12.5 -59.5t-12.5 -59t-34.5 -47t-52 -31.5t-64 -11.5
t-63.5 11.5t-51.5 31.5t-34.5 47t-12.5 59t12.5 59.5t34.5 47.5t51.5 31.5t63.5 11.5z" />
    <glyph glyph-name="guillemotright" unicode="&#xbb;" horiz-adv-x="523" 
d="M404 320l-149 199l56 41l182 -240l-182 -232l-56 41zM212 320l-149 199l56 41l182 -240l-182 -232l-56 41z" />
    <glyph glyph-name="onequarter" unicode="&#xbc;" horiz-adv-x="867" 
d="M682 744l-440 -760l-51 28l440 758zM714 288h-3l-123 -164h126v164zM827 124v-58h-49v-66h-64v66h-243l307 407v-349h49zM40 696l34 58h116v-452h-64v394h-86z" />
    <glyph glyph-name="onehalf" unicode="&#xbd;" horiz-adv-x="867" 
d="M630 744l-440 -760l-51 28l440 758zM827 58v-58h-317l215 243q15 17 26.5 37.5t11.5 43.5q0 18 -8.5 32.5t-21.5 25t-29.5 16.5t-31.5 6q-37 0 -61.5 -21t-26.5 -55h-67q7 60 47.5 97t107.5 37q31 0 59 -10t49.5 -28t34 -43t12.5 -55q0 -25 -8.5 -50t-24.5 -43l-155 -175
h188zM126 696h-86l34 58h116v-452h-64v394z" />
    <glyph glyph-name="threequarters" unicode="&#xbe;" horiz-adv-x="867" 
d="M738 744l-440 -760l-51 28l440 758zM184 576q42 0 68 16.5t26 50.5q0 17 -7 30t-19 21.5t-27 13t-30 4.5q-29 0 -52 -13.5t-23 -42.5h-67q9 56 46 85t98 29q29 0 55.5 -8.5t46.5 -24t31.5 -38.5t11.5 -51q0 -33 -17 -59t-49 -43q36 -16 54.5 -45.5t18.5 -66.5
q0 -32 -12.5 -57t-34.5 -42.5t-51 -27t-62 -9.5q-29 0 -55 8.5t-46.5 24.5t-33.5 38.5t-14 50.5h64q5 -34 28.5 -49t61.5 -15q36 0 63.5 21.5t27.5 58.5q0 39 -29.5 61.5t-71.5 20.5v58zM714 288h-3l-123 -164h126v164zM827 124v-58h-49v-66h-64v66h-243l307 407v-349h49z
" />
    <glyph glyph-name="questiondown" unicode="&#xbf;" horiz-adv-x="453" 
d="M223 508q24 0 41 -17.5t17 -40.5q0 -24 -17 -41t-41 -17t-41 17t-17 41q0 23 17 40.5t41 17.5zM61 157q-2 33 11.5 62t36 51t52.5 35t62 13q33 0 62.5 -12.5t51.5 -34t34.5 -50.5t12.5 -63q0 -36 -11 -60t-28.5 -40.5t-40 -27t-46.5 -19.5q-23 -9 -45.5 -17t-40 -19.5
t-28.5 -27.5t-11 -41q0 -42 26 -65.5t66 -23.5q18 0 33.5 7t27 18.5t18.5 27t7 33.5q0 8 -2 16l-4 16h94l2 -33q2 -37 -12.5 -68t-39.5 -53.5t-58.5 -35.5t-68.5 -13q-38 0 -71 13.5t-57 37t-38 56t-14 70.5q0 35 14 68t40 56q25 22 58.5 34t65.5 22q27 8 50 24t23 49
q0 30 -20 51t-50 21q-32 0 -52 -22.5t-19 -54.5h-91z" />
    <glyph glyph-name="Agrave" unicode="&#xc0;" horiz-adv-x="703" 
d="M331 1020l125 -166l-44 -27l-164 149zM352 580l-134 -305h268zM179 189l-86 -189h-101l360 786l360 -786h-101l-86 189h-346z" />
    <glyph glyph-name="Aacute" unicode="&#xc1;" horiz-adv-x="703" 
d="M456 976l-164 -149l-44 27l125 166zM352 580l-134 -305h268zM179 189l-86 -189h-101l360 786l360 -786h-101l-86 189h-346z" />
    <glyph glyph-name="Acircumflex" unicode="&#xc2;" horiz-adv-x="703" 
d="M351 1020l161 -145l-59 -46l-102 96l-101 -96l-58 46zM352 580l-134 -305h268zM179 189l-86 -189h-101l360 786l360 -786h-101l-86 189h-346z" />
    <glyph glyph-name="Atilde" unicode="&#xc3;" horiz-adv-x="703" 
d="M161 899l3 5q10 15 20.5 28.5t23.5 24t28.5 17t35.5 6.5q26 0 47.5 -7.5t41.5 -18.5t37.5 -19t34.5 -8q22 0 37.5 15.5t26.5 32.5l47 -39q-17 -35 -46.5 -58.5t-71.5 -23.5q-21 0 -42 8t-41 18q-20 9 -39 17t-39 8q-19 0 -34 -15t-23 -31zM352 580l-134 -305h268z
M179 189l-86 -189h-101l360 786l360 -786h-101l-86 189h-346z" />
    <glyph glyph-name="Adieresis" unicode="&#xc4;" horiz-adv-x="703" 
d="M458 980q25 0 42.5 -17.5t17.5 -42.5q0 -26 -17.5 -43.5t-42.5 -17.5q-26 0 -43.5 17.5t-17.5 43.5q0 25 17.5 42.5t43.5 17.5zM247 980q25 0 42.5 -17.5t17.5 -42.5q0 -26 -17.5 -43.5t-42.5 -17.5q-26 0 -43.5 17.5t-17.5 43.5q0 25 17.5 42.5t43.5 17.5zM352 580
l-134 -305h268zM179 189l-86 -189h-101l360 786l360 -786h-101l-86 189h-346z" />
    <glyph glyph-name="Aring" unicode="&#xc5;" horiz-adv-x="703" 
d="M352 884q19 0 32.5 13t13.5 32t-13.5 32.5t-32.5 13.5q-18 0 -31.5 -13.5t-13.5 -32.5t13.5 -32t31.5 -13zM352 1020q19 0 35.5 -7t29 -19.5t19.5 -29t7 -35.5t-7 -35.5t-19.5 -28.5t-29 -19t-35.5 -7q-38 0 -64 26t-26 64t26 64.5t64 26.5zM352 580l-134 -305h268z
M179 189l-86 -189h-101l360 786l360 -786h-101l-86 189h-346z" />
    <glyph glyph-name="AE" unicode="&#xc6;" horiz-adv-x="997" 
d="M367 567l-138 -292h268zM189 189l-86 -189h-103l362 754h330l38 -86h-309l91 -211h301l40 -86h-302l121 -285h311l38 -86h-406l-83 189h-343z" />
    <glyph glyph-name="Ccedilla" unicode="&#xc7;" horiz-adv-x="661" 
d="M305 -181l-53 27l87 137l71 -29zM621 610q-41 36 -93 55t-106 19q-63 0 -117.5 -24.5t-94.5 -66.5t-63 -98t-23 -119q0 -62 22.5 -117.5t62.5 -97.5t94 -66.5t117 -24.5q56 0 107.5 20t93.5 58v-111q-44 -26 -96 -39.5t-102 -13.5q-81 0 -152.5 30t-125 82.5t-84.5 123.5
t-31 153q0 84 31.5 156.5t86 126t127.5 84t156 30.5q50 0 98.5 -12.5t91.5 -38.5v-109z" />
    <glyph glyph-name="Egrave" unicode="&#xc8;" horiz-adv-x="521" 
d="M240 1020l125 -166l-44 -27l-164 149zM72 754h405v-86h-311v-211h302v-86h-302v-285h311v-86h-405v754z" />
    <glyph glyph-name="Eacute" unicode="&#xc9;" horiz-adv-x="521" 
d="M377 976l-164 -149l-44 27l125 166zM72 754h405v-86h-311v-211h302v-86h-302v-285h311v-86h-405v754z" />
    <glyph glyph-name="Ecircumflex" unicode="&#xca;" horiz-adv-x="521" 
d="M260 1020l161 -145l-59 -46l-102 96l-101 -96l-58 46zM72 754h405v-86h-311v-211h302v-86h-302v-285h311v-86h-405v754z" />
    <glyph glyph-name="Edieresis" unicode="&#xcb;" horiz-adv-x="521" 
d="M379 980q25 0 42.5 -17.5t17.5 -42.5q0 -26 -17.5 -43.5t-42.5 -17.5q-26 0 -43.5 17.5t-17.5 43.5q0 25 17.5 42.5t43.5 17.5zM168 980q25 0 42.5 -17.5t17.5 -42.5q0 -26 -17.5 -43.5t-42.5 -17.5q-26 0 -43.5 17.5t-17.5 43.5q0 25 17.5 42.5t43.5 17.5zM72 754h405
v-86h-311v-211h302v-86h-302v-285h311v-86h-405v754z" />
    <glyph glyph-name="Igrave" unicode="&#xcc;" horiz-adv-x="232" 
d="M95 1020l125 -166l-44 -27l-164 149zM163 0h-94v754h94v-754z" />
    <glyph glyph-name="Iacute" unicode="&#xcd;" horiz-adv-x="232" 
d="M220 976l-164 -149l-44 27l125 166zM163 0h-94v754h94v-754z" />
    <glyph glyph-name="Icircumflex" unicode="&#xce;" horiz-adv-x="232" 
d="M115 1020l161 -145l-59 -46l-102 96l-101 -96l-58 46zM163 0h-94v754h94v-754z" />
    <glyph glyph-name="Idieresis" unicode="&#xcf;" horiz-adv-x="232" 
d="M222 980q25 0 42.5 -17.5t17.5 -42.5q0 -26 -17.5 -43.5t-42.5 -17.5q-26 0 -43.5 17.5t-17.5 43.5q0 25 17.5 42.5t43.5 17.5zM11 980q25 0 42.5 -17.5t17.5 -42.5q0 -26 -17.5 -43.5t-42.5 -17.5q-26 0 -43.5 17.5t-17.5 43.5q0 25 17.5 42.5t43.5 17.5zM163 0h-94v754
h94v-754z" />
    <glyph glyph-name="Eth" unicode="&#xd0;" horiz-adv-x="665" 
d="M158 450h134v-88h-134v-276h33q72 0 137 14.5t114 48.5t78 90t29 138t-29 138t-78 90t-114 48.5t-137 14.5h-33v-218zM64 754h156q87 0 163.5 -23t134.5 -69.5t91.5 -116.5t33.5 -164q0 -96 -33 -168t-90.5 -119t-135.5 -70.5t-167 -23.5h-153v362h-64v88h64v304z" />
    <glyph glyph-name="Ntilde" unicode="&#xd1;" horiz-adv-x="785" 
d="M202 899l3 5q10 15 20.5 28.5t23.5 24t28.5 17t35.5 6.5q26 0 47.5 -7.5t41.5 -18.5t37.5 -19t34.5 -8q22 0 37.5 15.5t26.5 32.5l47 -39q-17 -35 -46.5 -58.5t-71.5 -23.5q-21 0 -42 8t-41 18q-20 9 -39 17t-39 8q-19 0 -34 -15t-23 -31zM63 790l566 -593v557h94v-785
l-566 593v-562h-94v790z" />
    <glyph glyph-name="Ograve" unicode="&#xd2;" horiz-adv-x="828" 
d="M393 1020l125 -166l-44 -27l-164 149zM414 72q61 0 115.5 23.5t96 64.5t65.5 96.5t24 120.5q0 62 -22 117.5t-62 97t-95.5 66t-121.5 24.5t-121.5 -24.5t-95.5 -66t-62 -97t-22 -117.5q0 -65 24 -120.5t65.5 -96.5t96 -64.5t115.5 -23.5zM414 770q81 0 153 -31
t125.5 -84.5t85 -125t31.5 -152.5q0 -84 -31 -156t-84.5 -124.5t-125.5 -82.5t-154 -30t-154 30t-125.5 82.5t-84.5 124.5t-31 156q0 81 31.5 152.5t85 125t125.5 84.5t153 31z" />
    <glyph glyph-name="Oacute" unicode="&#xd3;" horiz-adv-x="828" 
d="M518 976l-164 -149l-44 27l125 166zM414 72q61 0 115.5 23.5t96 64.5t65.5 96.5t24 120.5q0 62 -22 117.5t-62 97t-95.5 66t-121.5 24.5t-121.5 -24.5t-95.5 -66t-62 -97t-22 -117.5q0 -65 24 -120.5t65.5 -96.5t96 -64.5t115.5 -23.5zM414 770q81 0 153 -31t125.5 -84.5
t85 -125t31.5 -152.5q0 -84 -31 -156t-84.5 -124.5t-125.5 -82.5t-154 -30t-154 30t-125.5 82.5t-84.5 124.5t-31 156q0 81 31.5 152.5t85 125t125.5 84.5t153 31z" />
    <glyph glyph-name="Ocircumflex" unicode="&#xd4;" horiz-adv-x="828" 
d="M413 1020l161 -145l-59 -46l-102 96l-101 -96l-58 46zM414 72q61 0 115.5 23.5t96 64.5t65.5 96.5t24 120.5q0 62 -22 117.5t-62 97t-95.5 66t-121.5 24.5t-121.5 -24.5t-95.5 -66t-62 -97t-22 -117.5q0 -65 24 -120.5t65.5 -96.5t96 -64.5t115.5 -23.5zM414 770
q81 0 153 -31t125.5 -84.5t85 -125t31.5 -152.5q0 -84 -31 -156t-84.5 -124.5t-125.5 -82.5t-154 -30t-154 30t-125.5 82.5t-84.5 124.5t-31 156q0 81 31.5 152.5t85 125t125.5 84.5t153 31z" />
    <glyph glyph-name="Otilde" unicode="&#xd5;" horiz-adv-x="828" 
d="M223 899l3 5q10 15 20.5 28.5t23.5 24t28.5 17t35.5 6.5q26 0 47.5 -7.5t41.5 -18.5t37.5 -19t34.5 -8q22 0 37.5 15.5t26.5 32.5l47 -39q-17 -35 -46.5 -58.5t-71.5 -23.5q-21 0 -42 8t-41 18q-20 9 -39 17t-39 8q-19 0 -34 -15t-23 -31zM414 72q61 0 115.5 23.5
t96 64.5t65.5 96.5t24 120.5q0 62 -22 117.5t-62 97t-95.5 66t-121.5 24.5t-121.5 -24.5t-95.5 -66t-62 -97t-22 -117.5q0 -65 24 -120.5t65.5 -96.5t96 -64.5t115.5 -23.5zM414 770q81 0 153 -31t125.5 -84.5t85 -125t31.5 -152.5q0 -84 -31 -156t-84.5 -124.5
t-125.5 -82.5t-154 -30t-154 30t-125.5 82.5t-84.5 124.5t-31 156q0 81 31.5 152.5t85 125t125.5 84.5t153 31z" />
    <glyph glyph-name="Odieresis" unicode="&#xd6;" horiz-adv-x="828" 
d="M520 980q25 0 42.5 -17.5t17.5 -42.5q0 -26 -17.5 -43.5t-42.5 -17.5q-26 0 -43.5 17.5t-17.5 43.5q0 25 17.5 42.5t43.5 17.5zM309 980q25 0 42.5 -17.5t17.5 -42.5q0 -26 -17.5 -43.5t-42.5 -17.5q-26 0 -43.5 17.5t-17.5 43.5q0 25 17.5 42.5t43.5 17.5zM414 72
q61 0 115.5 23.5t96 64.5t65.5 96.5t24 120.5q0 62 -22 117.5t-62 97t-95.5 66t-121.5 24.5t-121.5 -24.5t-95.5 -66t-62 -97t-22 -117.5q0 -65 24 -120.5t65.5 -96.5t96 -64.5t115.5 -23.5zM414 770q81 0 153 -31t125.5 -84.5t85 -125t31.5 -152.5q0 -84 -31 -156
t-84.5 -124.5t-125.5 -82.5t-154 -30t-154 30t-125.5 82.5t-84.5 124.5t-31 156q0 81 31.5 152.5t85 125t125.5 84.5t153 31z" />
    <glyph glyph-name="multiply" unicode="&#xd7;" 
d="M93 512l196 -195l196 195l60 -61l-195 -195l195 -195l-60 -61l-196 195l-196 -195l-60 61l195 195l-195 195z" />
    <glyph glyph-name="Oslash" unicode="&#xd8;" horiz-adv-x="828" 
d="M223 142q38 -37 87.5 -53.5t103.5 -16.5q61 0 115.5 23.5t96 64.5t65.5 96.5t24 120.5q0 105 -66 189zM610 609q-39 38 -90.5 56t-105.5 17q-66 0 -121.5 -24.5t-95.5 -66t-62 -97t-22 -117.5q0 -54 16.5 -104t48.5 -92zM715 629q43 -54 68.5 -118.5t25.5 -133.5
q0 -84 -31 -156t-84.5 -124.5t-125.5 -82.5t-154 -30q-78 0 -140.5 25t-119.5 70l-100 -100l-41 42l99 99q-47 52 -70 114t-23 143t31.5 152.5t85 125t125.5 84.5t153 31q70 0 139.5 -25.5t121.5 -74.5l100 100l40 -41z" />
    <glyph glyph-name="Ugrave" unicode="&#xd9;" horiz-adv-x="669" 
d="M302 1020l125 -166l-44 -27l-164 149zM153 754v-445q0 -46 8 -89t28.5 -76t56 -52.5t89.5 -19.5t89.5 19.5t56 52.5t28.5 76t8 89v445h94v-477q0 -62 -19 -115.5t-54.5 -93t-86.5 -62t-116 -22.5t-116 22.5t-86.5 62t-54.5 93t-19 115.5v477h94z" />
    <glyph glyph-name="Uacute" unicode="&#xda;" horiz-adv-x="669" 
d="M439 976l-164 -149l-44 27l125 166zM153 754v-445q0 -46 8 -89t28.5 -76t56 -52.5t89.5 -19.5t89.5 19.5t56 52.5t28.5 76t8 89v445h94v-477q0 -62 -19 -115.5t-54.5 -93t-86.5 -62t-116 -22.5t-116 22.5t-86.5 62t-54.5 93t-19 115.5v477h94z" />
    <glyph glyph-name="Ucircumflex" unicode="&#xdb;" horiz-adv-x="669" 
d="M334 1020l161 -145l-59 -46l-102 96l-101 -96l-58 46zM153 754v-445q0 -46 8 -89t28.5 -76t56 -52.5t89.5 -19.5t89.5 19.5t56 52.5t28.5 76t8 89v445h94v-477q0 -62 -19 -115.5t-54.5 -93t-86.5 -62t-116 -22.5t-116 22.5t-86.5 62t-54.5 93t-19 115.5v477h94z" />
    <glyph glyph-name="Udieresis" unicode="&#xdc;" horiz-adv-x="669" 
d="M441 980q25 0 42.5 -17.5t17.5 -42.5q0 -26 -17.5 -43.5t-42.5 -17.5q-26 0 -43.5 17.5t-17.5 43.5q0 25 17.5 42.5t43.5 17.5zM230 980q25 0 42.5 -17.5t17.5 -42.5q0 -26 -17.5 -43.5t-42.5 -17.5q-26 0 -43.5 17.5t-17.5 43.5q0 25 17.5 42.5t43.5 17.5zM153 754v-445
q0 -46 8 -89t28.5 -76t56 -52.5t89.5 -19.5t89.5 19.5t56 52.5t28.5 76t8 89v445h94v-477q0 -62 -19 -115.5t-54.5 -93t-86.5 -62t-116 -22.5t-116 22.5t-86.5 62t-54.5 93t-19 115.5v477h94z" />
    <glyph glyph-name="Yacute" unicode="&#xdd;" horiz-adv-x="573" 
d="M431 976l-164 -149l-44 27l125 166zM-6 754h108l185 -322l185 322h108l-246 -426v-328h-94v328z" />
    <glyph glyph-name="Thorn" unicode="&#xde;" horiz-adv-x="495" 
d="M166 260h30q36 0 71.5 4.5t64 19.5t46.5 42t18 72q0 44 -19 70.5t-48.5 40t-66 17.5t-71.5 4h-25v-270zM166 0h-94v754h94v-140h14q87 0 145.5 -14.5t93.5 -42.5t50 -68.5t15 -92.5q0 -60 -21 -101.5t-57 -68t-84 -38.5t-102 -12h-54v-176z" />
    <glyph glyph-name="germandbls" unicode="&#xdf;" horiz-adv-x="580" 
d="M282 68q39 0 74.5 15t62 41t42.5 60.5t16 73.5q0 43 -15 76.5t-41.5 57t-62 36t-76.5 15.5v88q29 0 53.5 10.5t42.5 29t28.5 44t10.5 54.5q0 28 -10.5 51t-28 40t-41 26.5t-50.5 9.5q-50 0 -76 -23.5t-38 -59t-13.5 -77t-1.5 -77.5v-559h-90v386h-40v84h40v148
q0 57 11.5 105t37.5 83t68.5 54.5t104.5 19.5q46 0 85.5 -16t69 -44.5t46 -68.5t16.5 -87q0 -111 -96 -167q37 -12 66 -36.5t49 -57t30.5 -70t10.5 -75.5q0 -59 -23 -110t-62 -88.5t-90.5 -58t-109.5 -17.5v84z" />
    <glyph glyph-name="agrave" unicode="&#xe0;" horiz-adv-x="556" 
d="M257 734l125 -166l-44 -27l-164 149zM501 0h-90v73h-2q-27 -40 -67.5 -64.5t-91.5 -24.5q-54 0 -95.5 20.5t-70 55.5t-43.5 81t-15 96q0 48 15.5 92.5t44 78t69.5 54t92 20.5q52 0 93 -25t69 -67h2v78h90v-468zM264 64q37 0 65 13.5t47.5 37t29.5 54t10 65.5
q0 34 -10 64.5t-29.5 53.5t-48 36.5t-64.5 13.5q-35 0 -62.5 -14t-46.5 -37.5t-29 -53.5t-10 -63t10 -63.5t28.5 -54.5t46 -38t63.5 -14z" />
    <glyph glyph-name="aacute" unicode="&#xe1;" horiz-adv-x="556" 
d="M382 690l-164 -149l-44 27l125 166zM501 0h-90v73h-2q-27 -40 -67.5 -64.5t-91.5 -24.5q-54 0 -95.5 20.5t-70 55.5t-43.5 81t-15 96q0 48 15.5 92.5t44 78t69.5 54t92 20.5q52 0 93 -25t69 -67h2v78h90v-468zM264 64q37 0 65 13.5t47.5 37t29.5 54t10 65.5
q0 34 -10 64.5t-29.5 53.5t-48 36.5t-64.5 13.5q-35 0 -62.5 -14t-46.5 -37.5t-29 -53.5t-10 -63t10 -63.5t28.5 -54.5t46 -38t63.5 -14z" />
    <glyph glyph-name="acircumflex" unicode="&#xe2;" horiz-adv-x="556" 
d="M277 734l161 -145l-59 -46l-102 96l-101 -96l-58 46zM501 0h-90v73h-2q-27 -40 -67.5 -64.5t-91.5 -24.5q-54 0 -95.5 20.5t-70 55.5t-43.5 81t-15 96q0 48 15.5 92.5t44 78t69.5 54t92 20.5q52 0 93 -25t69 -67h2v78h90v-468zM264 64q37 0 65 13.5t47.5 37t29.5 54
t10 65.5q0 34 -10 64.5t-29.5 53.5t-48 36.5t-64.5 13.5q-35 0 -62.5 -14t-46.5 -37.5t-29 -53.5t-10 -63t10 -63.5t28.5 -54.5t46 -38t63.5 -14z" />
    <glyph glyph-name="atilde" unicode="&#xe3;" horiz-adv-x="556" 
d="M87 613l3 5q10 15 20.5 28.5t23.5 24t28.5 17t35.5 6.5q26 0 47.5 -7.5t41.5 -18.5t37.5 -19t34.5 -8q22 0 37.5 15.5t26.5 32.5l47 -39q-17 -35 -46.5 -58.5t-71.5 -23.5q-21 0 -42 8t-41 18q-20 9 -39 17t-39 8q-19 0 -34 -15t-23 -31zM501 0h-90v73h-2
q-27 -40 -67.5 -64.5t-91.5 -24.5q-54 0 -95.5 20.5t-70 55.5t-43.5 81t-15 96q0 48 15.5 92.5t44 78t69.5 54t92 20.5q52 0 93 -25t69 -67h2v78h90v-468zM264 64q37 0 65 13.5t47.5 37t29.5 54t10 65.5q0 34 -10 64.5t-29.5 53.5t-48 36.5t-64.5 13.5q-35 0 -62.5 -14
t-46.5 -37.5t-29 -53.5t-10 -63t10 -63.5t28.5 -54.5t46 -38t63.5 -14z" />
    <glyph glyph-name="adieresis" unicode="&#xe4;" horiz-adv-x="556" 
d="M384 694q25 0 42.5 -17.5t17.5 -42.5q0 -26 -17.5 -43.5t-42.5 -17.5q-26 0 -43.5 17.5t-17.5 43.5q0 25 17.5 42.5t43.5 17.5zM173 694q25 0 42.5 -17.5t17.5 -42.5q0 -26 -17.5 -43.5t-42.5 -17.5q-26 0 -43.5 17.5t-17.5 43.5q0 25 17.5 42.5t43.5 17.5zM501 0h-90v73
h-2q-27 -40 -67.5 -64.5t-91.5 -24.5q-54 0 -95.5 20.5t-70 55.5t-43.5 81t-15 96q0 48 15.5 92.5t44 78t69.5 54t92 20.5q52 0 93 -25t69 -67h2v78h90v-468zM264 64q37 0 65 13.5t47.5 37t29.5 54t10 65.5q0 34 -10 64.5t-29.5 53.5t-48 36.5t-64.5 13.5q-35 0 -62.5 -14
t-46.5 -37.5t-29 -53.5t-10 -63t10 -63.5t28.5 -54.5t46 -38t63.5 -14z" />
    <glyph glyph-name="aring" unicode="&#xe5;" horiz-adv-x="556" 
d="M278 598q19 0 32.5 13t13.5 32t-13.5 32.5t-32.5 13.5q-18 0 -31.5 -13.5t-13.5 -32.5t13.5 -32t31.5 -13zM278 734q19 0 35.5 -7t29 -19.5t19.5 -29t7 -35.5t-7 -35.5t-19.5 -28.5t-29 -19t-35.5 -7q-38 0 -64 26t-26 64t26 64.5t64 26.5zM501 0h-90v73h-2
q-27 -40 -67.5 -64.5t-91.5 -24.5q-54 0 -95.5 20.5t-70 55.5t-43.5 81t-15 96q0 48 15.5 92.5t44 78t69.5 54t92 20.5q52 0 93 -25t69 -67h2v78h90v-468zM264 64q37 0 65 13.5t47.5 37t29.5 54t10 65.5q0 34 -10 64.5t-29.5 53.5t-48 36.5t-64.5 13.5q-35 0 -62.5 -14
t-46.5 -37.5t-29 -53.5t-10 -63t10 -63.5t28.5 -54.5t46 -38t63.5 -14z" />
    <glyph glyph-name="ae" unicode="&#xe6;" horiz-adv-x="807" 
d="M435 219q0 -30 10 -58t28.5 -49.5t44.5 -34.5t58 -13q52 0 83 24.5t57 66.5l76 -43q-33 -61 -90.5 -94.5t-126.5 -33.5q-54 0 -100 24t-80 63q-29 -44 -78.5 -65.5t-100.5 -21.5q-35 0 -69 9t-61 28t-43.5 48t-16.5 68q0 38 14.5 67.5t38.5 49.5t56 30t68 10
q38 0 75.5 -9.5t66.5 -33.5v32q0 121 -123 121q-32 0 -64.5 -2.5t-63.5 -12.5v80q35 7 70.5 10t70.5 3q22 0 45.5 -4.5t45 -14t40 -24t29.5 -34.5q31 38 77.5 57.5t100.5 19.5q56 0 97 -19.5t68 -53t40.5 -79t13.5 -97.5v-14h-357zM221 218q-18 0 -37.5 -4.5t-36 -14.5
t-27 -24.5t-10.5 -35.5t11.5 -35.5t28.5 -23t37 -12.5t37 -4q18 0 38 4t37.5 13.5t29 24.5t11.5 36t-12.5 35.5t-30.5 23.5t-38.5 13t-37.5 4zM704 287q-8 53 -41.5 85t-87.5 32q-53 0 -89 -33t-44 -84h262z" />
    <glyph glyph-name="ccedilla" unicode="&#xe7;" horiz-adv-x="441" 
d="M195 -181l-53 27l87 137l71 -29zM406 335q-55 63 -134 63q-33 0 -61.5 -13.5t-49.5 -36t-33 -52.5t-12 -62q0 -36 12 -66.5t33.5 -52.5t51 -34.5t65.5 -12.5q39 0 70.5 16.5t57.5 45.5v-115q-31 -17 -62.5 -24t-66.5 -7q-52 0 -97.5 18.5t-79.5 51.5t-54 78t-20 98
q0 54 19.5 100.5t54 80t81.5 52.5t101 19q32 0 64.5 -7.5t59.5 -23.5v-116z" />
    <glyph glyph-name="egrave" unicode="&#xe8;" horiz-adv-x="488" 
d="M223 734l125 -166l-44 -27l-164 149zM383 287q-8 53 -41.5 85t-87.5 32q-53 0 -89 -33t-44 -84h262zM116 219q0 -30 10 -58t28.5 -49.5t44.5 -34.5t58 -13q52 0 83 24.5t57 66.5l76 -43q-33 -61 -90.5 -94.5t-126.5 -33.5q-54 0 -96.5 19t-72 52t-45.5 78t-16 97
q0 54 14.5 100t43 80t71 53t99.5 19q56 0 97 -19.5t68 -53t40.5 -79t13.5 -97.5v-14h-357z" />
    <glyph glyph-name="eacute" unicode="&#xe9;" horiz-adv-x="488" 
d="M348 690l-164 -149l-44 27l125 166zM383 287q-8 53 -41.5 85t-87.5 32q-53 0 -89 -33t-44 -84h262zM116 219q0 -30 10 -58t28.5 -49.5t44.5 -34.5t58 -13q52 0 83 24.5t57 66.5l76 -43q-33 -61 -90.5 -94.5t-126.5 -33.5q-54 0 -96.5 19t-72 52t-45.5 78t-16 97
q0 54 14.5 100t43 80t71 53t99.5 19q56 0 97 -19.5t68 -53t40.5 -79t13.5 -97.5v-14h-357z" />
    <glyph glyph-name="ecircumflex" unicode="&#xea;" horiz-adv-x="488" 
d="M243 734l161 -145l-59 -46l-102 96l-101 -96l-58 46zM383 287q-8 53 -41.5 85t-87.5 32q-53 0 -89 -33t-44 -84h262zM116 219q0 -30 10 -58t28.5 -49.5t44.5 -34.5t58 -13q52 0 83 24.5t57 66.5l76 -43q-33 -61 -90.5 -94.5t-126.5 -33.5q-54 0 -96.5 19t-72 52t-45.5 78
t-16 97q0 54 14.5 100t43 80t71 53t99.5 19q56 0 97 -19.5t68 -53t40.5 -79t13.5 -97.5v-14h-357z" />
    <glyph glyph-name="edieresis" unicode="&#xeb;" horiz-adv-x="488" 
d="M350 694q25 0 42.5 -17.5t17.5 -42.5q0 -26 -17.5 -43.5t-42.5 -17.5q-26 0 -43.5 17.5t-17.5 43.5q0 25 17.5 42.5t43.5 17.5zM139 694q25 0 42.5 -17.5t17.5 -42.5q0 -26 -17.5 -43.5t-42.5 -17.5q-26 0 -43.5 17.5t-17.5 43.5q0 25 17.5 42.5t43.5 17.5zM383 287
q-8 53 -41.5 85t-87.5 32q-53 0 -89 -33t-44 -84h262zM116 219q0 -30 10 -58t28.5 -49.5t44.5 -34.5t58 -13q52 0 83 24.5t57 66.5l76 -43q-33 -61 -90.5 -94.5t-126.5 -33.5q-54 0 -96.5 19t-72 52t-45.5 78t-16 97q0 54 14.5 100t43 80t71 53t99.5 19q56 0 97 -19.5
t68 -53t40.5 -79t13.5 -97.5v-14h-357z" />
    <glyph glyph-name="igrave" unicode="&#xec;" horiz-adv-x="254" 
d="M106 734l125 -166l-44 -27l-164 149zM172 0h-90v468h90v-468z" />
    <glyph glyph-name="iacute" unicode="&#xed;" horiz-adv-x="254" 
d="M231 690l-164 -149l-44 27l125 166zM172 0h-90v468h90v-468z" />
    <glyph glyph-name="icircumflex" unicode="&#xee;" horiz-adv-x="254" 
d="M126 734l161 -145l-59 -46l-102 96l-101 -96l-58 46zM172 0h-90v468h90v-468z" />
    <glyph glyph-name="idieresis" unicode="&#xef;" horiz-adv-x="254" 
d="M233 694q25 0 42.5 -17.5t17.5 -42.5q0 -26 -17.5 -43.5t-42.5 -17.5q-26 0 -43.5 17.5t-17.5 43.5q0 25 17.5 42.5t43.5 17.5zM22 694q25 0 42.5 -17.5t17.5 -42.5q0 -26 -17.5 -43.5t-42.5 -17.5q-26 0 -43.5 17.5t-17.5 43.5q0 25 17.5 42.5t43.5 17.5zM172 0h-90v468
h90v-468z" />
    <glyph glyph-name="eth" unicode="&#xf0;" horiz-adv-x="540" 
d="M124 868l101 -111l146 83l49 -54l-145 -84q18 -22 39.5 -50t43 -59t43 -63t39.5 -62q32 -51 56 -112.5t24 -122.5q0 -57 -19.5 -103t-53 -78.5t-79.5 -50t-98 -17.5q-53 0 -98.5 19t-79 52.5t-53 79t-19.5 98.5t19.5 98.5t53 79t79 52.5t98.5 19q20 0 36 -4t30 -10l2 2
q-13 20 -32 48t-39 55t-39 50.5t-31 34.5l-158 -91l-50 55l158 91l-101 111zM270 396q-33 0 -62.5 -13t-51 -35t-34 -52t-12.5 -63t12.5 -62.5t34 -52t51 -35.5t62.5 -13t62.5 13t51 35.5t34 52t12.5 62.5t-12.5 63t-34 52t-51 35t-62.5 13z" />
    <glyph glyph-name="ntilde" unicode="&#xf1;" horiz-adv-x="523" 
d="M71 613l3 5q10 15 20.5 28.5t23.5 24t28.5 17t35.5 6.5q26 0 47.5 -7.5t41.5 -18.5t37.5 -19t34.5 -8q22 0 37.5 15.5t26.5 32.5l47 -39q-17 -35 -46.5 -58.5t-71.5 -23.5q-21 0 -42 8t-41 18q-20 9 -39 17t-39 8q-19 0 -34 -15t-23 -31zM152 405h2q21 38 59.5 57.5
t81.5 19.5q49 0 81.5 -15.5t51 -43t26 -64.5t7.5 -80v-279h-90v268q0 30 -3 54.5t-14 42.5t-31.5 27.5t-54.5 9.5q-44 0 -67.5 -17.5t-34 -44.5t-12.5 -60t-2 -65v-215h-90v468h90v-63z" />
    <glyph glyph-name="ograve" unicode="&#xf2;" horiz-adv-x="540" 
d="M249 734l125 -166l-44 -27l-164 149zM270 396q-33 0 -62.5 -13t-51 -35t-34 -52t-12.5 -63t12.5 -62.5t34 -52t51 -35.5t62.5 -13t62.5 13t51 35.5t34 52t12.5 62.5t-12.5 63t-34 52t-51 35t-62.5 13zM270 482q52 0 98 -19t79.5 -52.5t53 -79t19.5 -98.5t-19.5 -98.5
t-53 -79t-79.5 -52.5t-98 -19q-53 0 -98.5 19t-79 52.5t-53 79t-19.5 98.5t19.5 98.5t53 79t79 52.5t98.5 19z" />
    <glyph glyph-name="oacute" unicode="&#xf3;" horiz-adv-x="540" 
d="M374 690l-164 -149l-44 27l125 166zM270 396q-33 0 -62.5 -13t-51 -35t-34 -52t-12.5 -63t12.5 -62.5t34 -52t51 -35.5t62.5 -13t62.5 13t51 35.5t34 52t12.5 62.5t-12.5 63t-34 52t-51 35t-62.5 13zM270 482q52 0 98 -19t79.5 -52.5t53 -79t19.5 -98.5t-19.5 -98.5
t-53 -79t-79.5 -52.5t-98 -19q-53 0 -98.5 19t-79 52.5t-53 79t-19.5 98.5t19.5 98.5t53 79t79 52.5t98.5 19z" />
    <glyph glyph-name="ocircumflex" unicode="&#xf4;" horiz-adv-x="540" 
d="M269 734l161 -145l-59 -46l-102 96l-101 -96l-58 46zM270 396q-33 0 -62.5 -13t-51 -35t-34 -52t-12.5 -63t12.5 -62.5t34 -52t51 -35.5t62.5 -13t62.5 13t51 35.5t34 52t12.5 62.5t-12.5 63t-34 52t-51 35t-62.5 13zM270 482q52 0 98 -19t79.5 -52.5t53 -79t19.5 -98.5
t-19.5 -98.5t-53 -79t-79.5 -52.5t-98 -19q-53 0 -98.5 19t-79 52.5t-53 79t-19.5 98.5t19.5 98.5t53 79t79 52.5t98.5 19z" />
    <glyph glyph-name="otilde" unicode="&#xf5;" horiz-adv-x="540" 
d="M79 613l3 5q10 15 20.5 28.5t23.5 24t28.5 17t35.5 6.5q26 0 47.5 -7.5t41.5 -18.5t37.5 -19t34.5 -8q22 0 37.5 15.5t26.5 32.5l47 -39q-17 -35 -46.5 -58.5t-71.5 -23.5q-21 0 -42 8t-41 18q-20 9 -39 17t-39 8q-19 0 -34 -15t-23 -31zM270 396q-33 0 -62.5 -13
t-51 -35t-34 -52t-12.5 -63t12.5 -62.5t34 -52t51 -35.5t62.5 -13t62.5 13t51 35.5t34 52t12.5 62.5t-12.5 63t-34 52t-51 35t-62.5 13zM270 482q52 0 98 -19t79.5 -52.5t53 -79t19.5 -98.5t-19.5 -98.5t-53 -79t-79.5 -52.5t-98 -19q-53 0 -98.5 19t-79 52.5t-53 79
t-19.5 98.5t19.5 98.5t53 79t79 52.5t98.5 19z" />
    <glyph glyph-name="odieresis" unicode="&#xf6;" horiz-adv-x="540" 
d="M376 694q25 0 42.5 -17.5t17.5 -42.5q0 -26 -17.5 -43.5t-42.5 -17.5q-26 0 -43.5 17.5t-17.5 43.5q0 25 17.5 42.5t43.5 17.5zM165 694q25 0 42.5 -17.5t17.5 -42.5q0 -26 -17.5 -43.5t-42.5 -17.5q-26 0 -43.5 17.5t-17.5 43.5q0 25 17.5 42.5t43.5 17.5zM270 396
q-33 0 -62.5 -13t-51 -35t-34 -52t-12.5 -63t12.5 -62.5t34 -52t51 -35.5t62.5 -13t62.5 13t51 35.5t34 52t12.5 62.5t-12.5 63t-34 52t-51 35t-62.5 13zM270 482q52 0 98 -19t79.5 -52.5t53 -79t19.5 -98.5t-19.5 -98.5t-53 -79t-79.5 -52.5t-98 -19q-53 0 -98.5 19
t-79 52.5t-53 79t-19.5 98.5t19.5 98.5t53 79t79 52.5t98.5 19z" />
    <glyph glyph-name="divide" unicode="&#xf7;" 
d="M289 512q26 0 44 -18.5t18 -44.5t-18 -43.5t-44 -17.5t-44 17.5t-18 43.5t18 44.5t44 18.5zM289 124q26 0 44 -18.5t18 -44.5t-18 -43.5t-44 -17.5t-44 17.5t-18 43.5t18 44.5t44 18.5zM33 299h512v-86h-512v86z" />
    <glyph glyph-name="oslash" unicode="&#xf8;" horiz-adv-x="540" 
d="M173 102q22 -18 45 -25t52 -7q33 0 62.5 13t51 35.5t34 52t12.5 62.5q0 28 -9.5 53.5t-25.5 43.5zM365 363q-42 33 -95 33q-33 0 -62.5 -13t-51 -35t-34 -52t-12.5 -63q0 -29 8 -52.5t24 -46.5zM461 395q26 -35 42.5 -76.5t16.5 -85.5q0 -53 -19.5 -98.5t-53 -79
t-79.5 -52.5t-98 -19q-48 0 -87.5 14t-75.5 44l-61 -64l-31 31l61 62q-26 37 -41 76t-15 86q0 53 19.5 98.5t53 79t79 52.5t98.5 19q42 0 84.5 -15t74.5 -43l66 67l31 -32z" />
    <glyph glyph-name="ugrave" unicode="&#xf9;" horiz-adv-x="512" 
d="M235 734l125 -166l-44 -27l-164 149zM148 468v-259q0 -28 4.5 -53.5t16.5 -45t33 -31t54 -11.5t54 11.5t33 31t16.5 45t4.5 53.5v259h90v-269q0 -48 -11.5 -87.5t-35.5 -68t-61.5 -44t-89.5 -15.5t-89.5 15.5t-61.5 44t-35.5 68t-11.5 87.5v269h90z" />
    <glyph glyph-name="uacute" unicode="&#xfa;" horiz-adv-x="512" 
d="M360 690l-164 -149l-44 27l125 166zM148 468v-259q0 -28 4.5 -53.5t16.5 -45t33 -31t54 -11.5t54 11.5t33 31t16.5 45t4.5 53.5v259h90v-269q0 -48 -11.5 -87.5t-35.5 -68t-61.5 -44t-89.5 -15.5t-89.5 15.5t-61.5 44t-35.5 68t-11.5 87.5v269h90z" />
    <glyph glyph-name="ucircumflex" unicode="&#xfb;" horiz-adv-x="512" 
d="M255 734l161 -145l-59 -46l-102 96l-101 -96l-58 46zM148 468v-259q0 -28 4.5 -53.5t16.5 -45t33 -31t54 -11.5t54 11.5t33 31t16.5 45t4.5 53.5v259h90v-269q0 -48 -11.5 -87.5t-35.5 -68t-61.5 -44t-89.5 -15.5t-89.5 15.5t-61.5 44t-35.5 68t-11.5 87.5v269h90z" />
    <glyph glyph-name="udieresis" unicode="&#xfc;" horiz-adv-x="512" 
d="M362 694q25 0 42.5 -17.5t17.5 -42.5q0 -26 -17.5 -43.5t-42.5 -17.5q-26 0 -43.5 17.5t-17.5 43.5q0 25 17.5 42.5t43.5 17.5zM151 694q25 0 42.5 -17.5t17.5 -42.5q0 -26 -17.5 -43.5t-42.5 -17.5q-26 0 -43.5 17.5t-17.5 43.5q0 25 17.5 42.5t43.5 17.5zM148 468v-259
q0 -28 4.5 -53.5t16.5 -45t33 -31t54 -11.5t54 11.5t33 31t16.5 45t4.5 53.5v259h90v-269q0 -48 -11.5 -87.5t-35.5 -68t-61.5 -44t-89.5 -15.5t-89.5 15.5t-61.5 44t-35.5 68t-11.5 87.5v269h90z" />
    <glyph glyph-name="yacute" unicode="&#xfd;" horiz-adv-x="484" 
d="M346 690l-164 -149l-44 27l125 166zM-13 468h105l158 -297l147 297h101l-379 -736h-102l184 348z" />
    <glyph glyph-name="thorn" unicode="&#xfe;" horiz-adv-x="556" 
d="M288 64q37 0 65 13.5t47.5 37t29.5 54t10 65.5q0 34 -10 64.5t-29.5 53.5t-48 36.5t-64.5 13.5q-35 0 -62.5 -14t-46.5 -37.5t-29 -53.5t-10 -63t10 -63.5t28.5 -54.5t46 -38t63.5 -14zM145 390h2q28 42 69 67t94 25q51 0 91.5 -20.5t69 -54t44 -78t15.5 -92.5
q0 -50 -15 -96t-43.5 -81t-70 -55.5t-95.5 -20.5q-50 0 -91 24.5t-68 64.5h-2v-341h-90v1136h90v-478z" />
    <glyph glyph-name="ydieresis" unicode="&#xff;" horiz-adv-x="484" 
d="M348 694q25 0 42.5 -17.5t17.5 -42.5q0 -26 -17.5 -43.5t-42.5 -17.5q-26 0 -43.5 17.5t-17.5 43.5q0 25 17.5 42.5t43.5 17.5zM137 694q25 0 42.5 -17.5t17.5 -42.5q0 -26 -17.5 -43.5t-42.5 -17.5q-26 0 -43.5 17.5t-17.5 43.5q0 25 17.5 42.5t43.5 17.5zM-13 468h105
l158 -297l147 297h101l-379 -736h-102l184 348z" />
    <glyph glyph-name="OE" unicode="&#x152;" horiz-adv-x="1143" 
d="M414 72q61 0 115.5 23.5t96 64.5t65.5 96.5t24 120.5q0 62 -22 117.5t-62 97t-95.5 66t-121.5 24.5t-121.5 -24.5t-95.5 -66t-62 -97t-22 -117.5q0 -65 24 -120.5t65.5 -96.5t96 -64.5t115.5 -23.5zM718 126h-2q-51 -69 -131 -106t-171 -36q-82 0 -154 30t-125.5 82.5
t-84.5 124.5t-31 156q0 81 31.5 152.5t85 125t125.5 84.5t153 31q43 -2 86 -11.5t83 -28t74 -45.5t59 -63h2v132h395v-86h-310v-211h301v-86h-301v-285h310v-86h-395v126z" />
    <glyph glyph-name="oe" unicode="&#x153;" horiz-adv-x="897" 
d="M525 219q0 -30 10 -58t28.5 -49.5t44.5 -34.5t58 -13q52 0 83 24.5t57 66.5l76 -43q-33 -61 -90.5 -94.5t-126.5 -33.5q-29 0 -58 6.5t-54.5 20t-46.5 32.5t-36 44q-34 -51 -88 -77.5t-112 -25.5q-53 0 -98.5 19t-79 52.5t-53 79t-19.5 98.5t19.5 98.5t53 79t79 52.5
t98.5 19q28 -1 56.5 -8.5t55 -21t49 -32.5t39.5 -43q64 101 193 105q56 0 97 -19.5t68 -53t40.5 -79t13.5 -97.5v-14h-357zM270 396q-33 0 -62.5 -13t-51 -35t-34 -52t-12.5 -63t12.5 -62.5t34 -52t51 -35.5t62.5 -13t62.5 13t51 35.5t34 52t12.5 62.5t-12.5 63t-34 52
t-51 35t-62.5 13zM791 287q-8 53 -41.5 85t-87.5 32q-53 0 -89 -33t-44 -84h262z" />
    <glyph glyph-name="Scaron" unicode="&#x160;" horiz-adv-x="537" 
d="M167 1020l101 -96l102 96l59 -46l-161 -145l-159 145zM407 611q-21 35 -49.5 53t-71.5 18q-23 0 -45.5 -7.5t-40.5 -21.5t-29 -33.5t-11 -44.5q0 -22 10 -39t25 -30t33.5 -22.5t36.5 -16.5l54 -21q40 -16 74.5 -35.5t59.5 -46.5t39 -62.5t14 -82.5q0 -51 -18.5 -94.5
t-51 -74.5t-76.5 -48.5t-95 -17.5q-46 0 -86 16t-70.5 44t-50.5 67t-26 84l95 20q0 -31 11 -57.5t31 -45.5t47 -29.5t57 -10.5t55.5 12t44 32t29 46.5t10.5 56.5t-11 52.5t-29.5 39t-42 29t-47.5 22.5l-52 22q-32 14 -62 30.5t-52.5 39t-36 52.5t-13.5 69q0 46 18.5 82
t49.5 61t71 38.5t83 13.5q63 0 113 -29.5t81 -84.5z" />
    <glyph glyph-name="scaron" unicode="&#x161;" horiz-adv-x="384" 
d="M90 734l101 -96l102 96l59 -46l-161 -145l-159 145zM250 361q-8 17 -24 29t-36 12q-19 0 -34 -13t-15 -33q0 -15 9.5 -26.5t24.5 -21.5t34.5 -18.5t40.5 -17.5t40.5 -20.5t34.5 -27.5t24 -36.5t9 -48.5q0 -33 -13 -61.5t-35 -49.5t-51 -32.5t-62 -11.5q-26 0 -50.5 7
t-46.5 20.5t-39 33t-26 44.5l77 35q14 -26 33.5 -43t51.5 -17q29 0 50 18t21 48q0 19 -8.5 29.5t-24.5 21.5l-88 47q-20 10 -36.5 21t-28.5 24.5t-18.5 31t-6.5 41.5q0 28 11 53t29.5 43.5t43.5 29t54 10.5q43 0 76 -22t52 -60z" />
    <glyph glyph-name="Ydieresis" unicode="&#x178;" horiz-adv-x="573" 
d="M393 980q25 0 42.5 -17.5t17.5 -42.5q0 -26 -17.5 -43.5t-42.5 -17.5q-26 0 -43.5 17.5t-17.5 43.5q0 25 17.5 42.5t43.5 17.5zM182 980q25 0 42.5 -17.5t17.5 -42.5q0 -26 -17.5 -43.5t-42.5 -17.5q-26 0 -43.5 17.5t-17.5 43.5q0 25 17.5 42.5t43.5 17.5zM-6 754h108
l185 -322l185 322h108l-246 -426v-328h-94v328z" />
    <glyph glyph-name="florin" unicode="&#x192;" 
d="M484 505l-9 -68h-131l-55 -303q-11 -61 -24.5 -112.5t-39.5 -89.5t-70.5 -59.5t-116.5 -21.5h-24l15 86h19q43 0 69.5 16t41.5 42.5t22.5 61t13.5 72.5l53 308h-65l9 68h70l21 124q7 44 20 82t35.5 65.5t56.5 43.5t85 16q33 0 60 -7l-16 -84q-18 7 -41 7
q-30 0 -48.5 -11.5t-30 -30.5t-17 -43t-10.5 -49l-22 -113h129z" />
    <glyph glyph-name="circumflex" unicode="&#x2c6;" horiz-adv-x="470" 
d="M234 734l161 -145l-59 -46l-102 96l-101 -96l-58 46z" />
    <glyph glyph-name="tilde" unicode="&#x2dc;" horiz-adv-x="510" 
d="M64 613l3 5q10 15 20.5 28.5t23.5 24t28.5 17t35.5 6.5q26 0 47.5 -7.5t41.5 -18.5t37.5 -19t34.5 -8q22 0 37.5 15.5t26.5 32.5l47 -39q-17 -35 -46.5 -58.5t-71.5 -23.5q-21 0 -42 8t-41 18q-20 9 -39 17t-39 8q-19 0 -34 -15t-23 -31z" />
    <glyph glyph-name="endash" unicode="&#x2013;" horiz-adv-x="500" 
d="M500 358v-75h-500v75h500z" />
    <glyph glyph-name="emdash" unicode="&#x2014;" horiz-adv-x="1000" 
d="M1000 358v-75h-1000v75h1000z" />
    <glyph glyph-name="quoteleft" unicode="&#x2018;" horiz-adv-x="277" 
d="M60 503l133 267l56 -23l-110 -275z" />
    <glyph glyph-name="quoteright" unicode="&#x2019;" horiz-adv-x="277" 
d="M217 739l-133 -267l-56 23l110 275z" />
    <glyph glyph-name="quotesinglbase" unicode="&#x201a;" horiz-adv-x="277" 
d="M242 88l-133 -267l-55 23l110 275z" />
    <glyph glyph-name="quotedblleft" unicode="&#x201c;" horiz-adv-x="439" 
d="M60 503l133 267l56 -23l-110 -275zM226 503l133 267l56 -23l-110 -275z" />
    <glyph glyph-name="quotedblright" unicode="&#x201d;" horiz-adv-x="439" 
d="M379 739l-133 -267l-56 23l110 275zM213 739l-133 -267l-56 23l110 275z" />
    <glyph glyph-name="quotedblbase" unicode="&#x201e;" horiz-adv-x="439" 
d="M404 88l-133 -267l-55 23l110 275zM238 88l-133 -267l-55 23l110 275z" />
    <glyph glyph-name="dagger" unicode="&#x2020;" 
d="M334 868v-275h181v-86h-181v-595h-90v595h-181v86h181v275h90z" />
    <glyph glyph-name="daggerdbl" unicode="&#x2021;" 
d="M334 868v-239h181v-86h-181v-122h181v-86h-181v-422h-90v422h-181v86h181v122h-181v86h181v239h90z" />
    <glyph glyph-name="bullet" unicode="&#x2022;" 
d="M289 189q-39 0 -73 14.5t-59.5 40t-40.5 60t-15 73.5t14.5 73.5t40 60t60 40.5t73.5 15t73.5 -15t60 -40.5t40.5 -60t15 -73.5t-15 -73.5t-41 -60t-60 -40t-73 -14.5z" />
    <glyph glyph-name="ellipsis" unicode="&#x2026;" horiz-adv-x="1000" 
d="M166 100q24 0 41 -17.5t17 -40.5q0 -24 -17 -41t-41 -17t-41 17t-17 41q0 23 17 40.5t41 17.5zM834 100q24 0 41 -17.5t17 -40.5q0 -24 -17 -41t-41 -17t-41 17t-17 41q0 23 17 40.5t41 17.5zM500 100q24 0 41 -17.5t17 -40.5q0 -24 -17 -41t-41 -17t-41 17t-17 41
q0 23 17 40.5t41 17.5z" />
    <glyph glyph-name="perthousand" unicode="&#x2030;" horiz-adv-x="1110" 
d="M913 267q-23 0 -44 -9t-37 -24t-25.5 -35.5t-9.5 -43.5t9.5 -43t25.5 -35t37 -24t44 -9t44 9t37 24t25.5 35t9.5 43t-9.5 43.5t-25.5 35.5t-37 24t-44 9zM913 327q36 0 68 -13.5t56 -36.5t38 -54.5t14 -67.5t-14.5 -67t-38.5 -54t-56 -36.5t-67 -13.5t-67 13.5t-56 36.5
t-38.5 54t-14.5 67t14 67.5t38 54.5t56 36.5t68 13.5zM521 267q-23 0 -44 -9t-37 -24t-25.5 -35.5t-9.5 -43.5t9.5 -43t25.5 -35t37 -24t44 -9t44 9t37 24t25.5 35t9.5 43t-9.5 43.5t-25.5 35.5t-37 24t-44 9zM521 327q36 0 68 -13.5t56 -36.5t38 -54.5t14 -67.5t-14.5 -67
t-38.5 -54t-56 -36.5t-67 -13.5t-67 13.5t-56 36.5t-38.5 54t-14.5 67t14 67.5t38 54.5t56 36.5t68 13.5zM602 744l-440 -760l-46 25l441 761zM198 710q-23 0 -44 -9t-37 -24t-25.5 -35.5t-9.5 -43.5t9.5 -43t25.5 -35t37 -24t44 -9t44 9t37 24t25.5 35t9.5 43t-9.5 43.5
t-25.5 35.5t-37 24t-44 9zM198 770q36 0 68 -13.5t56 -36.5t38 -54.5t14 -67.5t-14.5 -67t-38.5 -54t-56 -36.5t-67 -13.5t-67 13.5t-56 36.5t-38.5 54t-14.5 67t14 67.5t38 54.5t56 36.5t68 13.5z" />
    <glyph glyph-name="guilsinglleft" unicode="&#x2039;" horiz-adv-x="336" 
d="M260 129l-56 -41l-182 232l182 240l56 -41l-149 -199z" />
    <glyph glyph-name="guilsinglright" unicode="&#x203a;" horiz-adv-x="336" 
d="M225 320l-149 199l56 41l182 -240l-182 -232l-56 41z" />
    <glyph glyph-name="trademark" unicode="&#x2122;" horiz-adv-x="940" 
d="M374 690h-138v-357h-64v357h-138v64h340v-64zM906 333h-64v357h-2l-144 -357h-39l-140 357h-2v-357h-64v421h105l121 -297l125 297h104v-421z" />
    <glyph glyph-name="Lslash" horiz-adv-x="385" 
d="M166 470l118 83v-96l-118 -79v-292h229v-86h-323v320l-81 -58v97l81 54v341h94v-284z" />
    <glyph glyph-name="breve" horiz-adv-x="490" 
d="M143 694q15 -35 38.5 -55t63.5 -20q41 0 64 20t39 55h71q-6 -31 -22 -57t-39 -44.5t-52.5 -29t-60.5 -10.5t-60 10.5t-52 29t-39.5 44.5t-22.5 57h72z" />
    <glyph glyph-name="caron" horiz-adv-x="472" 
d="M134 734l101 -96l102 96l59 -46l-161 -145l-159 145z" />
    <glyph glyph-name="dotaccent" horiz-adv-x="360" 
d="M181 694q25 0 42.5 -17.5t17.5 -42.5q0 -26 -17.5 -43.5t-42.5 -17.5q-26 0 -43.5 17.5t-17.5 43.5q0 25 17.5 42.5t43.5 17.5z" />
    <glyph glyph-name="dotlessi" horiz-adv-x="254" 
d="M172 0h-90v468h90v-468z" />
    <glyph glyph-name="fi" horiz-adv-x="512" 
d="M294 777q-14 6 -30 12.5t-30 6.5q-24 0 -37 -13.5t-19 -33t-7 -41.5t-1 -39v-201h124v-84h-124v-384h-90v384h-41v84h41v228q0 38 7.5 71.5t24.5 58.5t46 39.5t73 14.5q33 0 63 -12v-91zM385 745q26 0 44 -18.5t18 -44.5t-18 -43.5t-44 -17.5t-44 17.5t-18 43.5t18 44.5
t44 18.5zM430 0h-90v468h90v-468z" />
    <glyph glyph-name="fl" horiz-adv-x="497" 
d="M294 777q-14 6 -30 12.5t-30 6.5q-24 0 -37 -13.5t-19 -33t-7 -41.5t-1 -39v-201h124v-84h-124v-384h-90v384h-41v84h41v228q0 38 7.5 71.5t24.5 58.5t46 39.5t73 14.5q33 0 63 -12v-91zM431 0h-90v868h90v-868z" />
    <glyph glyph-name="fraction" horiz-adv-x="165" 
d="M328 744l-440 -760l-51 28l440 758z" />
    <glyph glyph-name="hungarumlaut" horiz-adv-x="470" 
d="M246 690l-164 -149l-44 27l125 166zM432 681l-164 -149l-44 27l125 166z" />
    <glyph glyph-name="lslash" horiz-adv-x="255" 
d="M179 552l82 64v-94l-82 -61v-461h-90v412l-81 -61v93l81 57v367h90v-316z" />
    <glyph glyph-name="minus" 
d="M33 299h512v-86h-512v86z" />
    <glyph glyph-name="ogonek" horiz-adv-x="340" 
d="M211 -16v-2q-10 -7 -21 -16t-20 -20t-14.5 -23.5t-5.5 -25.5q0 -26 16.5 -36.5t39.5 -10.5q14 0 26.5 2.5t23.5 10.5l-7 -58q-14 -9 -30.5 -13t-33.5 -4q-18 0 -36.5 5t-32.5 15.5t-23 26t-9 35.5q0 38 25.5 67t55.5 47h46z" />
    <glyph glyph-name="ring" horiz-adv-x="360" 
d="M180 598q19 0 32.5 13t13.5 32t-13.5 32.5t-32.5 13.5q-18 0 -31.5 -13.5t-13.5 -32.5t13.5 -32t31.5 -13zM180 734q19 0 35.5 -7t29 -19.5t19.5 -29t7 -35.5t-7 -35.5t-19.5 -28.5t-29 -19t-35.5 -7q-38 0 -64 26t-26 64t26 64.5t64 26.5z" />
    </font>
</defs>
</svg>
