<?xml version="1.0" standalone="no"?>
<!DOCTYPE svg PUBLIC "-//W3C//DTD SVG 1.1//EN" "http://www.w3.org/Graphics/SVG/1.1/DTD/svg11.dtd" >
<svg xmlns="http://www.w3.org/2000/svg" xmlns:xlink="http://www.w3.org/1999/xlink" version="1.1">
<metadata>
Created by FontForge 20170731 at Sat Jul 28 03:05:51 2001
 By Aleksey,,,
Copyright (c) 1987, 1991, 1993 Adobe Systems Incorporated.  All Rights Reserved.Futura is a registered trademark of Fundicion Tipografica Neufville S. A.
</metadata>
<defs>
<font id="FuturaLT-Oblique" horiz-adv-x="578" >
  <font-face 
    font-family="Futura LT Medium"
    font-weight="400"
    font-style="oblique"
    font-stretch="normal"
    units-per-em="1000"
    panose-1="2 0 5 4 3 0 0 9 0 4"
    ascent="800"
    descent="-200"
    x-height="468"
    cap-height="754"
    bbox="-161 -268 1232 995"
    underline-thickness="50"
    underline-position="-175"
    slope="-9"
    unicode-range="U+0020-2122"
  />
<missing-glyph horiz-adv-x="500" 
d="M442 8v496h-384v-496h384zM50 512h400v-512h-400v512z" />
    <glyph glyph-name=".notdef" horiz-adv-x="500" 
d="M442 8v496h-384v-496h384zM50 512h400v-512h-400v512z" />
    <glyph glyph-name=".null" horiz-adv-x="0" 
 />
    <glyph glyph-name="nonmarkingreturn" horiz-adv-x="289" 
 />
    <glyph glyph-name="space" unicode=" " horiz-adv-x="289" 
 />
    <glyph glyph-name="exclam" unicode="!" horiz-adv-x="321" 
d="M235 754h90l-91 -580h-90zM177 100q24 0 38.5 -17.5t10.5 -40.5q-4 -24 -24 -41t-44 -17t-38 17t-10 41q4 23 23.5 40.5t43.5 17.5z" />
    <glyph glyph-name="quotedbl" unicode="&#x22;" horiz-adv-x="439" 
d="M468 754l-70 -328h-62l34 328h98zM307 754l-70 -328h-62l34 328h98z" />
    <glyph glyph-name="numbersign" unicode="#" 
d="M264 290h123l51 154h-123zM408 718l-67 -194h124l66 194h79l-66 -194h92l-13 -80h-107l-51 -154h101l-13 -80h-117l-71 -210h-76l70 210h-123l-73 -210h-75l70 210h-100l13 80h115l51 154h-105l13 80h119l67 194h77z" />
    <glyph glyph-name="dollar" unicode="$" 
d="M391 683q-40 -6 -71.5 -34.5t-37.5 -68.5q-3 -22 1.5 -39t15.5 -29.5t26 -22.5t33 -17zM419 860h50l-14 -90q56 -5 94.5 -35t58.5 -81l-87 -45q-11 30 -30 47t-50 27l-37 -235q35 -17 67 -37.5t55 -48t33.5 -63t3.5 -81.5q-7 -41 -28.5 -80.5t-53 -71.5t-70.5 -54
t-81 -28l-15 -95h-50l15 95q-44 1 -80.5 17.5t-63 45t-41 66.5t-14.5 81l93 19q2 -64 28.5 -98.5t91.5 -42.5l48 300l-33 18q-27 15 -51 31.5t-40 38t-23 49t-1 64.5t25.5 71.5t48 61.5t64 44t73.5 20zM345 78q24 5 45.5 18t38.5 31t28 40.5t15 46.5q4 25 -1.5 45.5
t-17.5 36.5t-29 29t-36 24z" />
    <glyph glyph-name="percent" unicode="%" horiz-adv-x="708" 
d="M558 267q-23 0 -45.5 -9t-41 -24t-31 -35.5t-15.5 -43.5q-4 -23 2 -43t19.5 -35t33.5 -24t43 -9t45.5 9t41 24t31 35t16.5 43q3 23 -3 43.5t-19.5 35.5t-33.5 24t-43 9zM568 327q36 0 65.5 -13.5t50 -36.5t30 -54.5t3.5 -67.5t-25 -67t-47 -54t-62.5 -36.5t-69.5 -13.5
t-65 13.5t-50 36.5t-29.5 54t-3.5 67t25 67.5t46.5 54.5t61.5 36.5t70 13.5zM715 744l-561 -760l-42 25l562 761zM305 710q-23 0 -45.5 -9t-40.5 -24t-30.5 -35.5t-16.5 -43.5t2 -43t19.5 -35t33.5 -24t43 -9t45.5 9t41 24t31 35t16.5 43t-2.5 43.5t-20 35.5t-33.5 24t-43 9
zM315 770q36 0 65.5 -13.5t50 -36.5t30 -54.5t3.5 -67.5t-25 -67t-47 -54t-62 -36.5t-69 -13.5t-65 13.5t-50.5 36.5t-30 54t-3.5 67t25 67.5t46.5 54.5t61.5 36.5t70 13.5z" />
    <glyph glyph-name="ampersand" unicode="&#x26;" horiz-adv-x="692" 
d="M526 102q-25 -25 -54 -46.5t-60.5 -37.5t-64.5 -25t-66 -9q-47 0 -86.5 16.5t-66 46t-38.5 70t-4 89.5q6 36 20.5 64.5t36.5 52t49 43.5t57 40l53 34q-14 17 -26 36t-20 39.5t-11.5 43t0.5 46.5q6 39 24 69.5t45 52t60.5 32.5t70.5 11q34 0 64 -10.5t51 -31t30.5 -49.5
t3.5 -66q-5 -32 -21.5 -59t-40 -50t-51 -42.5t-54.5 -36.5l127 -190l104 102l51 -62l-110 -108l109 -167h-116zM398 498q16 11 34 23t33.5 25.5t26.5 30t14 37.5q7 40 -15 61t-60 21q-17 0 -33 -6t-29 -16.5t-22 -25t-12 -32.5q-2 -14 -0.5 -26.5t6 -24t11 -22.5t13.5 -21
l20 -32zM336 366q-22 -14 -48.5 -30t-50.5 -36t-41.5 -43t-21.5 -50q-5 -27 3 -52t24.5 -44.5t40 -31t50.5 -11.5q26 0 51 9t49 23.5t46 32t43 35.5l-135 204z" />
    <glyph glyph-name="quotesingle" unicode="'" horiz-adv-x="277" 
d="M307 754l-70 -328h-62l34 328h98z" />
    <glyph glyph-name="parenleft" unicode="(" horiz-adv-x="292" 
d="M354 754q-31 -50 -56 -105t-44.5 -112.5t-33 -115.5t-22.5 -113t-13.5 -113t-3.5 -115.5t8.5 -113t23.5 -104.5l-83 -55q-19 54 -29 116.5t-12 128t2.5 131t14.5 125.5q9 61 25.5 126.5t39 130.5t52.5 127.5t66 116.5z" />
    <glyph glyph-name="parenright" unicode=")" horiz-adv-x="292" 
d="M259 809q19 -54 29 -116.5t12 -127.5t-2.5 -130.5t-13.5 -126.5q-10 -60 -26 -125.5t-39 -131t-53 -128t-66 -116.5l-65 55q31 49 56.5 104.5t45 113t33 115.5t22.5 113t13.5 113t3.5 115.5t-9 112.5t-24 105z" />
    <glyph glyph-name="asterisk" unicode="*" horiz-adv-x="432" 
d="M372 754l-15 -95l89 48l26 -59l-93 -50l77 -50l-44 -58l-73 50l-16 -96h-69l16 97l-95 -49l-25 57l93 49l-76 50l40 57l81 -49l15 98h69z" />
    <glyph glyph-name="plus" unicode="+" 
d="M413 512l-34 -213h213l-13 -86h-213l-34 -213h-86l34 213h-213l13 86h213l34 213h86z" />
    <glyph glyph-name="comma" unicode="," horiz-adv-x="289" 
d="M256 88l-175 -267l-52 23l154 275z" />
    <glyph glyph-name="hyphenminus" unicode="-" horiz-adv-x="332" 
d="M333 358l-12 -75h-219l12 75h219z" />
    <glyph glyph-name="period" unicode="." horiz-adv-x="289" 
d="M161 100q24 0 38.5 -17.5t10.5 -40.5q-4 -24 -24 -41t-44 -17t-38 17t-10 41q4 23 23.5 40.5t43.5 17.5z" />
    <glyph glyph-name="slash" unicode="/" horiz-adv-x="551" 
d="M652 836l-569 -962l-66 32l568 962z" />
    <glyph glyph-name="zero" unicode="0" 
d="M398 690q-51 0 -89.5 -34t-66 -83t-44 -102.5t-22.5 -92.5q-4 -26 -6 -59t0.5 -67.5t10.5 -67.5t23 -59t38.5 -41.5t57.5 -15.5t62.5 15.5t51.5 41.5t41 59t31.5 67.5t22.5 67.5t13 59t5.5 59t-1 68t-10 68t-22.5 59t-38.5 42t-57.5 16zM286 -16q-49 0 -84 18.5t-59.5 49
t-38.5 71t-20 84t-5 87.5t7 83t19 83t32.5 87.5t46.5 84t61.5 71t75.5 49t90 18.5t84.5 -18.5t59.5 -49t38.5 -71t20.5 -84t5 -87.5t-7 -83q-6 -38 -19 -82.5t-33.5 -88t-47.5 -84t-61 -71t-75.5 -49t-89.5 -18.5z" />
    <glyph glyph-name="one" unicode="1" 
d="M229 668l65 86h169l-119 -754h-90l106 668h-131z" />
    <glyph glyph-name="two" unicode="2" 
d="M546 86l-14 -86h-487l394 405q28 29 55.5 63t33.5 72q4 30 -4 56t-25.5 45.5t-42.5 31t-54 11.5t-56 -11t-49.5 -29.5t-38.5 -44t-23 -53.5h-94q14 50 39.5 91.5t60.5 71t79.5 45.5t95.5 16q48 0 88.5 -17t68.5 -47t40.5 -71.5t4.5 -90.5q-7 -42 -28 -82.5t-52 -72.5
l-296 -303h304z" />
    <glyph glyph-name="three" unicode="3" 
d="M344 438q30 0 58 6t50.5 20.5t38 37.5t21.5 57q4 28 -2 52t-21 41t-37.5 26.5t-50.5 9.5q-51 0 -89 -29.5t-53 -78.5h-93q29 94 93 142t158 48q45 0 82.5 -14t63 -40.5t36.5 -64t4 -84.5q-9 -56 -39.5 -99.5t-83.5 -70.5q51 -26 69 -76t8 -111q-8 -53 -33.5 -95
t-62.5 -71t-83.5 -44.5t-97.5 -15.5q-44 0 -82.5 14t-65.5 40.5t-41 63.5t-9 84h91q-1 -28 8.5 -50t27 -37.5t41 -24t50.5 -8.5q31 0 59.5 11.5t51 31.5t37.5 47t20 58q11 72 -27 111.5t-109 34.5z" />
    <glyph glyph-name="four" unicode="4" 
d="M459 503h-2l-262 -311h214zM585 192l-13 -82h-86l-17 -110h-90l17 110h-372l569 676l-94 -594h86z" />
    <glyph glyph-name="five" unicode="5" 
d="M397 668l-72 -155l54 3q55 0 96 -21.5t67 -58t35.5 -84.5t1.5 -100q-9 -60 -39 -109t-73.5 -84.5t-97.5 -55t-112 -19.5q-35 0 -67.5 9t-60 26t-48.5 41.5t-33 55.5l81 66q5 -24 19.5 -44.5t35 -35.5t45 -23.5t49.5 -8.5q38 0 73.5 14.5t64 40t48 59t25.5 71.5
q6 36 -3 68.5t-30 57t-51.5 39t-66.5 14.5q-40 0 -81 -17.5t-71 -49.5h-18l177 387h302l-13 -86h-237z" />
    <glyph glyph-name="six" unicode="6" 
d="M301 68q31 0 62 12t56.5 33t43 49t22.5 60q6 35 -3 65t-28 51.5t-46 33.5t-57 12q-31 0 -62 -13t-56.5 -35t-43.5 -50t-23 -59q-5 -33 3 -61.5t27 -50.5t46 -34.5t59 -12.5zM562 724l-244 -272l1 -2q18 8 37.5 13t39.5 5q46 0 83 -20t61 -53t34 -75.5t3 -87.5
q-8 -52 -35 -97t-66.5 -78.5t-88 -53t-99.5 -19.5q-49 0 -91 19t-71.5 51.5t-43.5 76.5t-6 94q9 57 41 105.5t72 93.5l312 346z" />
    <glyph glyph-name="seven" unicode="7" 
d="M153 668l13 86h543l-592 -770l-65 45l491 639h-390z" />
    <glyph glyph-name="eight" unicode="8" 
d="M398 690q-26 0 -50.5 -10t-45 -28t-34.5 -41.5t-18 -50.5q-4 -23 3.5 -45.5t22.5 -41t36 -30t45 -11.5t48.5 11.5t45.5 30t36 41t19 45.5q4 27 -2.5 50.5t-21.5 41.5t-37 28t-47 10zM86 210q5 30 17 58.5t31 52.5t44 42t56 28q-43 26 -62 69.5t-10 99.5q7 46 30 84.5
t56.5 66.5t75.5 43.5t87 15.5t82 -15.5t61.5 -43.5t35.5 -66.5t4 -84.5q-9 -56 -42 -99.5t-84 -69.5q28 -10 47 -28t30.5 -42t14.5 -52.5t-2 -58.5q-8 -53 -33.5 -94.5t-62.5 -71t-82.5 -45t-93.5 -15.5t-88.5 15.5t-68 45t-39.5 71t-4 94.5zM345 352q-29 0 -57 -11t-51 -30
t-39.5 -45t-21.5 -56q-5 -29 3.5 -54.5t26 -45t42 -31t52.5 -11.5t56 11.5t51.5 31t39.5 45t21 54.5q5 30 -3 56t-25 45t-42 30t-53 11z" />
    <glyph glyph-name="nine" unicode="9" 
d="M361 370q36 0 67.5 13t56 35t40.5 50.5t21 59.5q4 30 -4 58.5t-25.5 50.5t-43 35.5t-56.5 13.5q-34 0 -66 -12.5t-58.5 -34t-44 -50.5t-22.5 -61q-6 -34 3.5 -63t29 -50t46.5 -33t56 -12zM150 31l244 271l-2 2q-18 -8 -36.5 -11t-38.5 -3q-47 0 -84 19.5t-61 51.5t-34 74
t-3 87q8 52 35 97t66 78.5t87.5 53t99.5 19.5q49 0 91 -19t72 -51.5t44 -76.5t6 -94q-9 -57 -41 -105.5t-73 -93.5l-312 -346z" />
    <glyph glyph-name="colon" unicode=":" horiz-adv-x="289" 
d="M221 482q24 0 38.5 -17.5t10.5 -40.5q-4 -24 -23.5 -41t-43.5 -17t-38.5 17t-10.5 41q4 23 23.5 40.5t43.5 17.5zM161 100q24 0 38.5 -17.5t10.5 -40.5q-4 -24 -24 -41t-44 -17t-38 17t-10 41q4 23 23.5 40.5t43.5 17.5z" />
    <glyph glyph-name="semicolon" unicode=";" horiz-adv-x="289" 
d="M268 482q24 0 38.5 -17.5t10.5 -40.5q-4 -24 -23.5 -41t-43.5 -17t-38.5 17t-10.5 41q4 23 23.5 40.5t43.5 17.5zM248 88l-175 -267l-52 23l154 275z" />
    <glyph glyph-name="less" unicode="&#x3c;" 
d="M609 404l-407 -148l360 -148l-15 -94l-479 207l11 70l545 207z" />
    <glyph glyph-name="equal" unicode="=" 
d="M579 213l-14 -86h-512l14 86h512zM606 385l-14 -86h-512l14 86h512z" />
    <glyph glyph-name="greater" unicode="&#x3e;" 
d="M112 498l479 -207l-11 -70l-545 -207l15 94l408 148l-361 148z" />
    <glyph glyph-name="question" unicode="?" horiz-adv-x="453" 
d="M246 100q24 0 38.5 -17.5t10.5 -40.5q-4 -24 -24 -41t-44 -17t-38 17t-10 41q4 23 23.5 40.5t43.5 17.5zM447 345q-4 -33 -22 -62t-44 -51t-58 -35t-64 -13q-33 0 -60.5 12.5t-46 34t-26.5 50.5t-3 63q6 36 21 60t35 40.5t44.5 27t49.5 19.5q24 9 48 17t43.5 19.5
t32.5 27.5t17 41q7 42 -15.5 65.5t-62.5 23.5q-18 0 -34.5 -7t-30 -18.5t-22.5 -27t-12 -33.5q-2 -8 -1 -16l2 -16h-94l3 33q4 37 23.5 68t48 53.5t64 35.5t70.5 13q38 0 68.5 -13.5t51 -37t29.5 -56t3 -70.5q-5 -35 -24.5 -68t-49.5 -56q-28 -22 -64 -34t-69 -22
q-14 -4 -28 -10t-25.5 -14.5t-19.5 -20.5t-11 -28q-5 -30 11.5 -51t46.5 -21q32 0 55.5 22.5t28.5 54.5h91z" />
    <glyph glyph-name="at" unicode="@" horiz-adv-x="800" 
d="M632 568h71l-91 -257q-5 -13 -10 -28t-7 -28t1.5 -21.5t16.5 -8.5q17 0 38.5 16t41.5 43t36 61.5t22 71.5q10 63 -2.5 113.5t-43.5 86t-77.5 54.5t-103.5 19q-63 0 -121.5 -24.5t-105.5 -67t-79 -99.5t-42 -122q-11 -69 5 -126.5t53 -99t90.5 -64.5t117.5 -23
q63 0 112.5 12t81.5 36l65 -60q-29 -14 -58 -26.5t-62 -21.5t-72 -14.5t-88 -5.5q-81 0 -146.5 29.5t-110 82t-63.5 124.5t-5 157q13 84 54 156t101 124.5t134.5 82.5t154.5 30q66 0 122.5 -21t98.5 -66q45 -45 66 -102.5t10 -127.5q-10 -63 -35 -118t-61 -94
q-44 -48 -88 -68.5t-80 -18.5q-20 1 -32 17t-12 45q-29 -26 -65 -44t-81 -18q-33 0 -61 14.5t-47.5 39.5t-27.5 58.5t-2 72.5q7 45 28 88t53 76.5t72.5 53.5t87.5 20q38 0 68 -16t54 -55zM562 372q17 61 -6.5 94t-75.5 33q-30 0 -57 -13.5t-47.5 -35.5t-34 -49.5
t-17.5 -54.5q-4 -22 -0.5 -42.5t14 -36.5t28 -25.5t40.5 -9.5q33 0 59 11.5t45 31t31.5 45t20.5 52.5z" />
    <glyph glyph-name="A" unicode="A" horiz-adv-x="703" 
d="M444 580l-182 -305h268zM209 189l-116 -189h-101l484 786l236 -786h-101l-56 189h-346z" />
    <glyph glyph-name="B" unicode="B" horiz-adv-x="535" 
d="M183 754h92q53 0 101.5 -8.5t83.5 -31.5t52 -63t7 -104q-3 -21 -12 -42.5t-22.5 -41t-31 -35t-38.5 -24.5v-2q32 -6 57 -24t40.5 -44.5t21.5 -58t1 -64.5q-9 -57 -37.5 -97t-69 -65.5t-89.5 -37t-99 -11.5h-176zM171 84h72q33 0 65.5 5.5t60 20.5t47.5 41t26 66t-8 65
t-39.5 39t-59 19t-64.5 5h-58zM225 420h24q33 0 63 4.5t54 18t41 38t23 65.5q6 40 -2.5 64t-28 37.5t-48 18t-61.5 4.5h-26z" />
    <glyph glyph-name="C" unicode="C" horiz-adv-x="661" 
d="M718 610q-35 36 -84.5 55t-103.5 19q-63 0 -121.5 -24.5t-105 -66.5t-78 -98t-41.5 -119q-10 -62 3.5 -117.5t46.5 -97.5t83.5 -66.5t113.5 -24.5q56 0 110.5 20t102.5 58l-17 -111q-48 -26 -102.5 -39.5t-104.5 -13.5q-81 0 -147.5 30t-111.5 82.5t-65 123.5t-7 153
q13 84 56 156.5t106 126t141 84t161 30.5q50 0 96.5 -12.5t85.5 -38.5z" />
    <glyph glyph-name="D" unicode="D" horiz-adv-x="665" 
d="M172 86h33q72 0 139 14.5t121.5 48.5t92.5 90t51 138t-7 138t-64 90t-106.5 48.5t-134.5 14.5h-33zM183 754h156q87 0 160 -23t123.5 -69.5t73 -116.5t7.5 -164q-15 -96 -59.5 -168t-109.5 -119t-146.5 -70.5t-170.5 -23.5h-153z" />
    <glyph glyph-name="E" unicode="E" horiz-adv-x="521" 
d="M191 754h405l-13 -86h-311l-34 -211h302l-13 -86h-302l-45 -285h311l-14 -86h-405z" />
    <glyph glyph-name="F" unicode="F" horiz-adv-x="474" 
d="M271 668l-34 -212h262l-13 -86h-262l-59 -370h-94l119 754h365l-13 -86h-271z" />
    <glyph glyph-name="G" unicode="G" horiz-adv-x="780" 
d="M819 380l-5 -30q-12 -78 -48.5 -144.5t-91.5 -116t-125.5 -77.5t-149.5 -28t-143.5 31.5t-107.5 85.5t-61.5 125t-6.5 149q13 81 55 153t103.5 126t138 85t157.5 31q88 0 163.5 -38t120.5 -108l-76 -63q-32 55 -90.5 89t-127.5 34q-63 0 -122 -24t-106 -65.5t-79 -97.5
t-42 -119q-9 -59 5 -114.5t46.5 -98.5t82 -69t110.5 -26q44 0 90.5 17.5t86 48t68.5 71.5t38 87h-195l13 86h299z" />
    <glyph glyph-name="H" unicode="H" horiz-adv-x="675" 
d="M588 450l48 304h94l-119 -754h-94l57 362h-359l-57 -362h-94l119 754h94l-48 -304h359z" />
    <glyph glyph-name="I" unicode="I" horiz-adv-x="232" 
d="M163 0h-94l119 754h94z" />
    <glyph glyph-name="J" unicode="J" horiz-adv-x="362" 
d="M422 754l-75 -479q-9 -54 -24.5 -106.5t-44 -93.5t-72.5 -66t-110 -25q-33 0 -60 8t-52 25l59 80q30 -25 71 -25q40 0 65 21t40 51.5t22 66t12 64.5l75 479h94z" />
    <glyph glyph-name="K" unicode="K" horiz-adv-x="600" 
d="M605 754h123l-392 -339l279 -415h-127l-228 351l-44 -36l-50 -315h-94l119 754h94l-51 -327z" />
    <glyph glyph-name="L" unicode="L" horiz-adv-x="385" 
d="M180 86h229l-14 -86h-323l119 754h94z" />
    <glyph glyph-name="M" unicode="M" horiz-adv-x="851" 
d="M279 498h-2l-167 -498h-97l278 786l165 -594l353 594l30 -786h-97l-9 498h-2l-308 -514z" />
    <glyph glyph-name="N" unicode="N" horiz-adv-x="785" 
d="M188 790l472 -593l88 557h94l-124 -785l-472 593l-89 -562h-94z" />
    <glyph glyph-name="O" unicode="O" horiz-adv-x="828" 
d="M425 72q61 0 119.5 23.5t106 64.5t80.5 96.5t44 120.5q10 62 -3.5 117.5t-47 97t-85 66t-117.5 24.5t-125.5 -24.5t-106 -66t-77 -97t-40.5 -117.5q-11 -65 4.5 -120.5t50 -96.5t85.5 -64.5t112 -23.5zM536 770q81 0 148 -31t112.5 -84.5t65.5 -125t7 -152.5
q-14 -84 -56.5 -156t-104.5 -124.5t-138.5 -82.5t-158.5 -30t-149 30t-112 82.5t-65 124.5t-6 156q13 81 55.5 152.5t104.5 125t139 84.5t158 31z" />
    <glyph glyph-name="P" unicode="P" horiz-adv-x="495" 
d="M229 400h30q36 0 72.5 4.5t67.5 19.5t53 42t29 72q7 44 -7.5 70.5t-42.5 40t-63.5 17.5t-70.5 4h-25zM166 0h-94l119 754h108q87 0 143 -14.5t87 -42.5t39.5 -68.5t0.5 -92.5q-9 -60 -37 -101.5t-68.5 -68t-90 -38.5t-103.5 -12h-54z" />
    <glyph glyph-name="Q" unicode="Q" horiz-adv-x="828" 
d="M653 166q25 19 45.5 44.5t36 53.5t25.5 57t15 56q10 62 -3.5 117.5t-47 97t-85 66t-117.5 24.5t-125.5 -24.5t-106 -66t-77 -97t-40.5 -117.5q-11 -65 4.5 -120.5t50 -96.5t85.5 -64.5t112 -23.5q35 0 77 10.5t80 32.5l-146 169h117zM691 -16l-54 67q-52 -32 -112 -49.5
t-114 -17.5q-82 0 -149 30t-112 82.5t-65 124.5t-6 156q13 81 55.5 152.5t104.5 125t139 84.5t158 31t148 -31t112.5 -84.5t65.5 -125t7 -152.5t-55.5 -153t-106.5 -125l98 -115h-114z" />
    <glyph glyph-name="R" unicode="R" horiz-adv-x="543" 
d="M229 397h30q36 0 72.5 4.5t67.5 19.5t53 42t29 72q7 44 -8 70.5t-42.5 41t-63 19t-70.5 4.5h-25zM541 0h-114l-171 319h-39l-51 -319h-94l119 754h114q51 0 101.5 -4.5t92.5 -30.5q43 -28 61 -77t9 -103q-6 -41 -25 -77t-47 -64t-64 -46.5t-78 -23.5z" />
    <glyph glyph-name="S" unicode="S" horiz-adv-x="537" 
d="M504 611q-16 35 -41.5 53t-68.5 18q-23 0 -46.5 -7.5t-43.5 -21.5t-34.5 -33.5t-18.5 -44.5q-3 -22 4 -39t20 -30t30 -22.5t34 -16.5l51 -21q37 -16 68.5 -35.5t52 -46.5t29 -62.5t1.5 -82.5q-8 -51 -34 -94.5t-63.5 -74.5t-84 -48.5t-97.5 -17.5q-46 0 -83 16t-63.5 44
t-40 67t-12.5 84l98 20q-5 -31 2 -57.5t24 -45.5t42 -29.5t55 -10.5t57.5 12t49.5 32t36.5 46.5t19.5 56.5t-3 52.5t-23.5 39t-37 29t-44.5 22.5l-48 22q-30 14 -57 30.5t-46.5 39t-28 52.5t-2.5 69q7 46 31.5 82t59.5 61t77 38.5t85 13.5q63 0 108 -29.5t68 -84.5z" />
    <glyph glyph-name="T" unicode="T" horiz-adv-x="456" 
d="M275 0h-94l106 668h-179l13 86h452l-13 -86h-179z" />
    <glyph glyph-name="U" unicode="U" horiz-adv-x="669" 
d="M272 754l-70 -445q-8 -46 -6.5 -89t16.5 -76t47.5 -52.5t86.5 -19.5t92.5 19.5t64.5 52.5t40.5 76t22.5 89l70 445h94l-75 -477q-10 -62 -37 -115.5t-69 -93t-97 -62t-120 -22.5t-112.5 22.5t-76.5 62t-39.5 93t-0.5 115.5l75 477h94z" />
    <glyph glyph-name="V" unicode="V" horiz-adv-x="640" 
d="M352 196l312 558h103l-452 -794l-203 794h103z" />
    <glyph glyph-name="W" unicode="W" horiz-adv-x="1027" 
d="M335 214l301 556l125 -556l296 540h102l-437 -784l-125 553l-301 -553l-189 784h102z" />
    <glyph glyph-name="X" unicode="X" horiz-adv-x="574" 
d="M148 754h107l111 -275l207 275h107l-273 -359l166 -395h-105l-129 309l-234 -309h-105l300 395z" />
    <glyph glyph-name="Y" unicode="Y" horiz-adv-x="573" 
d="M113 754h108l134 -322l236 322h108l-313 -426l-52 -328h-94l52 328z" />
    <glyph glyph-name="Z" unicode="Z" horiz-adv-x="552" 
d="M558 86l-14 -86h-535l488 668h-328l13 86h481l-487 -668h382z" />
    <glyph glyph-name="bracketleft" unicode="[" horiz-adv-x="311" 
d="M136 -109h98l-14 -84h-190l159 1002h190l-13 -84h-98z" />
    <glyph glyph-name="backslash" unicode="\" horiz-adv-x="551" 
d="M252 868l267 -868h-84l-267 868h84z" />
    <glyph glyph-name="bracketright" unicode="]" horiz-adv-x="311" 
d="M273 725h-98l13 84h190l-159 -1002h-190l14 84h98z" />
    <glyph glyph-name="asciicircum" unicode="^" 
d="M352 754h112l130 -446h-94l-105 362l-220 -362h-93z" />
    <glyph glyph-name="underscore" unicode="_" horiz-adv-x="500" 
d="M480 -125h-500l8 50h500z" />
    <glyph glyph-name="grave" unicode="`" horiz-adv-x="360" 
d="M275 734l99 -166l-48 -27l-141 149z" />
    <glyph glyph-name="a" unicode="a" horiz-adv-x="556" 
d="M501 0h-90l12 73h-2q-34 -40 -78.5 -64.5t-95.5 -24.5q-54 0 -92 20.5t-61 55.5t-30.5 81t0.5 96q7 48 29.5 92.5t56.5 78t78 54t95 20.5q52 0 89.5 -25t58.5 -67h2l12 78h90zM274 64q37 0 67.5 13.5t53.5 37t37.5 54t20.5 65.5q5 34 0 64.5t-21 53.5t-42 36.5t-62 13.5
q-35 0 -64.5 -14t-52.5 -37.5t-38 -53.5t-20 -63t0 -63.5t20 -54.5t40 -38t61 -14z" />
    <glyph glyph-name="b" unicode="b" horiz-adv-x="556" 
d="M192 868h90l-75 -478h2q35 42 79.5 67t97.5 25q51 0 88.5 -20.5t60.5 -54t31.5 -78t1.5 -92.5q-8 -50 -30.5 -96t-56.5 -81t-79 -55.5t-99 -20.5q-50 0 -87 24.5t-57 64.5h-2l-12 -73h-90zM298 64q37 0 67.5 13.5t53.5 37t37.5 54t20.5 65.5q5 34 0 64.5t-21 53.5
t-42 36.5t-62 13.5q-35 0 -64.5 -14t-52.5 -37.5t-38 -53.5t-20 -63t0 -63.5t20 -54.5t40 -38t61 -14z" />
    <glyph glyph-name="c" unicode="c" horiz-adv-x="441" 
d="M459 335q-45 63 -124 63q-33 0 -63.5 -13.5t-55 -36t-41.5 -52.5t-22 -62q-6 -36 1.5 -66.5t25.5 -52.5t45.5 -34.5t63.5 -12.5q39 0 73.5 16.5t64.5 45.5l-19 -115q-33 -17 -66 -24t-68 -7q-52 0 -94.5 18.5t-71.5 51.5t-41.5 78t-4.5 98q9 54 36 100.5t66.5 80
t89.5 52.5t104 19q32 0 63.5 -7.5t55.5 -23.5z" />
    <glyph glyph-name="d" unicode="d" horiz-adv-x="556" 
d="M423 73h-2q-34 -40 -79 -64.5t-95 -24.5q-54 0 -92.5 20.5t-61.5 55.5t-30 81t1 96q7 48 29.5 92.5t56.5 78t77.5 54t94.5 20.5q53 0 90.5 -25t58.5 -67h2l75 478h90l-137 -868h-90zM274 64q37 0 67.5 13.5t53.5 37t37.5 54t20.5 65.5q5 34 0 64.5t-21 53.5t-42 36.5
t-62 13.5q-35 0 -64.5 -14t-52.5 -37.5t-38 -53.5t-20 -63t0 -63.5t20 -54.5t40 -38t61 -14z" />
    <glyph glyph-name="e" unicode="e" horiz-adv-x="488" 
d="M428 287q1 53 -27.5 85t-82.5 32q-53 0 -94 -33t-58 -84h262zM151 219q-5 -30 0.5 -58t20.5 -49.5t39 -34.5t56 -13q52 0 87.5 24.5t67.5 66.5l69 -43q-43 -61 -106 -94.5t-132 -33.5q-54 0 -93.5 19t-63.5 52t-33 78t-1 97q9 54 30.5 100t55.5 80t79.5 53t102.5 19
q56 0 94 -19.5t60 -53t28 -79t-2 -97.5l-2 -14h-357z" />
    <glyph glyph-name="f" unicode="f" horiz-adv-x="275" 
d="M417 777q-13 6 -28 12.5t-29 6.5q-24 0 -39 -13.5t-24 -33t-13.5 -41.5t-7.5 -39l-32 -201h124l-13 -84h-124l-61 -384h-90l61 384h-41l13 84h41l36 228q6 38 18.5 71.5t34 58.5t52.5 39.5t75 14.5q34 0 61 -12z" />
    <glyph glyph-name="g" unicode="g" horiz-adv-x="555" 
d="M501 9q-9 -60 -27 -111t-49.5 -88t-79 -57.5t-115.5 -20.5q-49 0 -88 14.5t-64.5 42t-36.5 66.5t-4 89h90q-10 -63 23.5 -97.5t95.5 -34.5q42 0 70 13.5t46.5 36.5t28.5 54.5t16 67.5l15 89h-2q-34 -40 -79 -64.5t-95 -24.5q-54 0 -92.5 20.5t-61.5 55.5t-30 81t1 96
q7 48 29.5 92.5t56.5 78t77.5 54t94.5 20.5q53 0 90.5 -25t57.5 -69h2l13 80h90zM273 64q37 0 67.5 13.5t53.5 37t37.5 54t20.5 65.5q5 34 0 64.5t-21 53.5t-42 36.5t-62 13.5q-35 0 -64.5 -14t-52.5 -37.5t-38 -53.5t-20 -63t0 -63.5t20 -54.5t40 -38t61 -14z" />
    <glyph glyph-name="h" unicode="h" horiz-adv-x="523" 
d="M289 868l-73 -463h2q27 38 68.5 57.5t84.5 19.5q49 0 79 -15.5t44.5 -43t16 -64.5t-5.5 -80l-44 -279h-90l42 268q5 30 6 54.5t-7 42.5t-27 27.5t-53 9.5q-44 0 -70 -17.5t-41 -44.5t-22.5 -60t-12.5 -65l-34 -215h-90l137 868h90z" />
    <glyph glyph-name="i" unicode="i" horiz-adv-x="254" 
d="M245 745q26 0 41.5 -18.5t10.5 -44.5q-4 -26 -25 -43.5t-47 -17.5t-41 17.5t-11 43.5q5 26 25.5 44.5t46.5 18.5zM172 0h-90l74 468h90z" />
    <glyph glyph-name="j" unicode="j" horiz-adv-x="254" 
d="M245 745q26 0 41.5 -18.5t10.5 -44.5q-4 -26 -25 -43.5t-47 -17.5t-41 17.5t-11 43.5q5 26 25.5 44.5t46.5 18.5zM130 -268h-90l116 736h90z" />
    <glyph glyph-name="k" unicode="k" horiz-adv-x="462" 
d="M204 292l204 176h119l-231 -194l177 -274h-117l-133 213l-36 -31l-29 -182h-90l137 868h90z" />
    <glyph glyph-name="l" unicode="l" horiz-adv-x="222" 
d="M156 0h-90l137 868h90z" />
    <glyph glyph-name="m" unicode="m" horiz-adv-x="767" 
d="M214 409h2q24 31 60.5 52t74.5 21q46 0 75.5 -22t46.5 -61q28 38 70 60.5t87 22.5q46 0 73.5 -16.5t40.5 -44.5t14 -64.5t-5 -76.5l-44 -280h-90l42 265q3 22 4.5 46.5t-4 44.5t-20.5 33t-45 13q-36 0 -59.5 -17t-37.5 -42.5t-22 -55.5t-12 -57l-36 -230h-90l39 248
q4 23 6.5 50t-2 50t-19.5 38.5t-46 15.5q-36 0 -59.5 -16.5t-38 -42t-22.5 -56t-12 -57.5l-36 -230h-90l74 468h90z" />
    <glyph glyph-name="n" unicode="n" horiz-adv-x="523" 
d="M216 405h2q27 38 68.5 57.5t84.5 19.5q49 0 79 -15.5t44.5 -43t16 -64.5t-5.5 -80l-44 -279h-90l42 268q5 30 6 54.5t-7 42.5t-27 27.5t-53 9.5q-44 0 -70 -17.5t-41 -44.5t-22.5 -60t-12.5 -65l-34 -215h-90l74 468h90z" />
    <glyph glyph-name="o" unicode="o" horiz-adv-x="540" 
d="M333 396q-33 0 -64.5 -13t-56.5 -35t-42.5 -52t-22.5 -63t2.5 -62.5t25.5 -52t45.5 -35.5t60.5 -13t64.5 13t56.5 35.5t42.5 52t22.5 62.5t-2.5 63t-25.5 52t-45.5 35t-60.5 13zM346 482q52 0 95 -19t71.5 -52.5t40.5 -79t4 -98.5t-35 -98.5t-66 -79t-88 -52.5t-101 -19
q-53 0 -95 19t-70.5 52.5t-40.5 79t-4 98.5t34.5 98.5t65.5 79t87.5 52.5t101.5 19z" />
    <glyph glyph-name="p" unicode="p" horiz-adv-x="556" 
d="M207 390h2q35 42 79.5 67t97.5 25q51 0 88.5 -20.5t60.5 -54t31.5 -78t1.5 -92.5q-8 -50 -30.5 -96t-56.5 -81t-79 -55.5t-99 -20.5q-50 0 -87 24.5t-57 64.5h-2l-54 -341h-90l116 736h90zM298 64q37 0 67.5 13.5t53.5 37t37.5 54t20.5 65.5q5 34 0 64.5t-21 53.5
t-42 36.5t-62 13.5q-35 0 -64.5 -14t-52.5 -37.5t-38 -53.5t-20 -63t0 -63.5t20 -54.5t40 -38t61 -14z" />
    <glyph glyph-name="q" unicode="q" horiz-adv-x="556" 
d="M459 -268h-90l54 341h-2q-34 -40 -79 -64.5t-95 -24.5q-54 0 -92.5 20.5t-61.5 55.5t-30 81t1 96q7 48 29.5 92.5t56.5 78t77.5 54t94.5 20.5q53 0 90.5 -25t58.5 -67h2l12 78h90zM274 64q37 0 67.5 13.5t53.5 37t37.5 54t20.5 65.5q5 34 0 64.5t-21 53.5t-42 36.5
t-62 13.5q-35 0 -64.5 -14t-52.5 -37.5t-38 -53.5t-20 -63t0 -63.5t20 -54.5t40 -38t61 -14z" />
    <glyph glyph-name="r" unicode="r" horiz-adv-x="351" 
d="M220 392h3q23 42 60 66t82 24q20 0 38 -6t33 -17l-54 -82q-11 11 -23.5 15t-28.5 4q-36 0 -60.5 -15.5t-39.5 -39.5t-23.5 -53.5t-12.5 -57.5l-36 -230h-90l74 468h90z" />
    <glyph glyph-name="s" unicode="s" horiz-adv-x="384" 
d="M307 361q-5 17 -19 29t-34 12q-19 0 -36 -13t-21 -33q-2 -15 5.5 -26.5t21 -21.5t32 -18.5t37.5 -17.5t36.5 -20.5t30.5 -27.5t18.5 -36.5t1.5 -48.5q-5 -33 -22.5 -61.5t-43 -49.5t-56.5 -32.5t-64 -11.5q-26 0 -49.5 7t-43 20.5t-33 33t-19.5 44.5l83 35
q10 -26 26.5 -43t48.5 -17q29 0 53 18t29 48q3 19 -4 29.5t-21 21.5l-81 47q-18 10 -32.5 21t-24.5 24.5t-14 31t0 41.5q4 28 19 53t36.5 43.5t48 29t55.5 10.5q43 0 72.5 -22t42.5 -60z" />
    <glyph glyph-name="t" unicode="t" horiz-adv-x="240" 
d="M165 0h-90l61 384h-49l13 84h49l28 179h90l-28 -179h88l-13 -84h-88z" />
    <glyph glyph-name="u" unicode="u" horiz-adv-x="512" 
d="M222 468l-41 -259q-5 -28 -4.5 -53.5t9.5 -45t28.5 -31t52.5 -11.5t56 11.5t38 31t23 45t13 53.5l41 259h90l-42 -269q-8 -48 -26 -87.5t-46.5 -68t-68.5 -44t-92 -15.5t-87 15.5t-54.5 44t-24.5 68t3 87.5l42 269h90z" />
    <glyph glyph-name="v" unicode="v" horiz-adv-x="445" 
d="M250 176l181 292h101l-313 -484l-158 484h101z" />
    <glyph glyph-name="w" unicode="w" horiz-adv-x="718" 
d="M249 170l189 324l86 -324l183 298h102l-315 -484l-87 313l-188 -313l-161 484h102z" />
    <glyph glyph-name="x" unicode="x" horiz-adv-x="489" 
d="M101 468h106l87 -151l145 151h109l-206 -214l161 -254h-105l-124 190l-179 -190h-109l249 254z" />
    <glyph glyph-name="y" unicode="y" horiz-adv-x="484" 
d="M61 468h105l111 -297l194 297h101l-495 -736h-102l239 348z" />
    <glyph glyph-name="z" unicode="z" horiz-adv-x="495" 
d="M494 84l-13 -84h-479l378 384h-263l13 84h438l-378 -384h304z" />
    <glyph glyph-name="braceleft" unicode="{" horiz-adv-x="334" 
d="M102 344q41 17 66 55.5t33 95.5l29 182q5 30 18 54.5t28.5 41.5t32 26.5t27.5 9.5h78l-13 -84h-40q-23 0 -30 -18.5t-11 -43.5l-29 -184q-7 -43 -22 -74t-31 -51.5t-30.5 -32t-19.5 -14.5q4 -3 15 -14t20.5 -31.5t15 -51.5t-1.5 -74l-30 -184q-4 -25 -2.5 -43.5
t24.5 -18.5h40l-14 -84h-78q-11 0 -24 9.5t-23.5 26.5t-16 41.5t-0.5 54.5l29 182q9 57 -3.5 95.5t-47.5 55.5z" />
    <glyph glyph-name="bar" unicode="|" horiz-adv-x="570" 
d="M294 -214h-86l158 1000h86z" />
    <glyph glyph-name="braceright" unicode="}" horiz-adv-x="334" 
d="M329 271q-41 -17 -65.5 -55.5t-33.5 -95.5l-29 -182q-5 -30 -17.5 -54.5t-28.5 -41.5t-32.5 -26.5t-27.5 -9.5h-78l14 84h40q23 0 29.5 18.5t10.5 43.5l30 184q7 43 21.5 74t31 51.5t30.5 31.5t20 14q-5 3 -15.5 14.5t-20.5 32t-15 51.5t2 74l29 184q4 25 3 43.5
t-24 18.5h-40l13 84h78q11 0 24.5 -9.5t24 -26.5t15.5 -41.5t0 -54.5l-29 -182q-8 -57 4 -95.5t47 -55.5z" />
    <glyph glyph-name="asciitilde" unicode="~" 
d="M590 284q-15 -21 -33 -42.5t-40 -39t-46.5 -29t-51.5 -11.5q-28 0 -55 16t-52 35t-45.5 35t-36.5 16q-26 0 -50.5 -21.5t-54.5 -60.5l-56 45q16 19 35 41t40.5 40t45.5 30t51 12q37 0 64.5 -16t49.5 -35t40 -35t36 -16q29 0 50 24t50 62z" />
    <glyph glyph-name="Euro" 
d="M670 644q-32 22 -65.5 31t-86.5 9q-58 0 -102.5 -19.5t-78 -51t-56.5 -71.5t-37 -82h357l-23 -58h-351q-3 -12 -3 -14q0 -1 -2 -12q-2 -14 -3 -24t-1 -24h323l-23 -58h-299q2 -38 14 -74t35.5 -64t60.5 -45t90 -17q23 0 43 2t40 7.5t40.5 15.5t44.5 25l-16 -101
q-29 -14 -69 -24.5t-94 -10.5q-63 0 -115.5 18t-91 53.5t-60 89t-21.5 125.5h-77l23 58h56q2 14 2.5 22.5t2.5 22.5q1 6 1.5 9.5t1 5.5t1 5t2.5 9h-68l23 58h60q25 78 66 136.5t92.5 97t111.5 57.5t123 19q18 0 40 -2.5t44 -7.5t42.5 -13t36.5 -18z" />
    <glyph glyph-name="Euro" unicode="&#x20ac;" 
d="M670 644q-32 22 -65.5 31t-86.5 9q-58 0 -102.5 -19.5t-78 -51t-56.5 -71.5t-37 -82h357l-23 -58h-351q-3 -12 -3 -14q0 -1 -2 -12q-2 -14 -3 -24t-1 -24h323l-23 -58h-299q2 -38 14 -74t35.5 -64t60.5 -45t90 -17q23 0 43 2t40 7.5t40.5 15.5t44.5 25l-16 -101
q-29 -14 -69 -24.5t-94 -10.5q-63 0 -115.5 18t-91 53.5t-60 89t-21.5 125.5h-77l23 58h56q2 14 2.5 22.5t2.5 22.5q1 6 1.5 9.5t1 5.5t1 5t2.5 9h-68l23 58h60q25 78 66 136.5t92.5 97t111.5 57.5t123 19q18 0 40 -2.5t44 -7.5t42.5 -13t36.5 -18z" />
    <glyph glyph-name="Zcaron" horiz-adv-x="552" 
d="M347 995l85 -96l118 96l51 -46l-184 -145l-136 145zM558 86l-14 -86h-535l488 668h-328l13 86h481l-487 -668h382z" />
    <glyph glyph-name="Zcaron" unicode="&#x17d;" horiz-adv-x="552" 
d="M347 995l85 -96l118 96l51 -46l-184 -145l-136 145zM558 86l-14 -86h-535l488 668h-328l13 86h481l-487 -668h382z" />
    <glyph glyph-name="zcaron" horiz-adv-x="495" 
d="M277 734l86 -96l117 96l52 -46l-184 -145l-136 145zM494 84l-13 -84h-479l378 384h-263l13 84h438l-378 -384h304z" />
    <glyph glyph-name="zcaron" unicode="&#x17e;" horiz-adv-x="495" 
d="M277 734l86 -96l117 96l52 -46l-184 -145l-136 145zM494 84l-13 -84h-479l378 384h-263l13 84h438l-378 -384h304z" />
    <glyph glyph-name="nonbreakingspace" unicode="&#xa0;" horiz-adv-x="289" 
 />
    <glyph glyph-name="exclamdown" unicode="&#xa1;" horiz-adv-x="321" 
d="M257 323l-92 -581h-90l92 581h90zM241 508q24 0 38.5 -17.5t10.5 -40.5q-4 -24 -23.5 -41t-43.5 -17t-38.5 17t-10.5 41q4 23 23.5 40.5t43.5 17.5z" />
    <glyph glyph-name="cent" unicode="&#xa2;" 
d="M393 539q-27 -3 -51.5 -19t-44 -39t-32.5 -49.5t-17 -50.5q-4 -27 0 -53.5t16 -48.5t32 -37.5t47 -21.5zM455 628q32 -2 62 -8.5t56 -22.5l-19 -115h-2q-17 28 -45.5 45t-64.5 18l-52 -328q38 5 69.5 19.5t62.5 42.5l-18 -117q-55 -24 -110 -28l-17 -1l-13 -85h-48l14 89
q-44 7 -79 28t-57.5 53t-32 72.5t-1.5 86.5q7 46 28.5 88.5t54.5 75.5t74.5 55.5t89.5 29.5l13 78h48z" />
    <glyph glyph-name="sterling" unicode="&#xa3;" 
d="M15 24q34 47 73.5 79t98.5 34q20 43 27.5 83.5t-9.5 80.5h-129l9 58h100q-15 40 -26 87.5t-4 92.5q8 49 35.5 91t67.5 73t87 49t94 18q53 0 93.5 -17t66.5 -48t37.5 -74t5.5 -95l-95 -34l4 28q5 31 -1.5 58.5t-22.5 48.5t-41 33t-57 12q-31 0 -62 -13.5t-57 -35
t-44 -48.5t-22 -54q-4 -26 -0.5 -49t11 -44t17 -40.5t16.5 -38.5h148l-9 -58h-124q7 -47 0 -86t-28 -86l70 -26q20 -8 43.5 -18.5t46.5 -10.5q15 0 28.5 7t25 18t21.5 24t19 25l68 -46q-29 -50 -73.5 -84t-101.5 -34q-32 0 -63.5 10t-61.5 23t-57.5 22.5t-53.5 9.5
q-35 0 -58.5 -17.5t-40.5 -47.5z" />
    <glyph glyph-name="currency" unicode="&#xa4;" 
d="M310 130q36 0 70 13.5t61.5 36.5t46 54t24.5 66q6 37 -2.5 68.5t-28.5 54t-50.5 35t-67.5 12.5q-38 0 -72 -12.5t-61 -35t-45 -54t-23 -68.5q-5 -35 4 -66t29 -54t49.5 -36.5t65.5 -13.5zM620 486l-48 -44q15 -31 21 -65t-1 -77q-8 -43 -24 -77t-41 -65l34 -44l-69 -60
l-39 44q-32 -22 -70 -35t-86 -13t-81.5 13t-58.5 35l-53 -44l-51 60l48 44q-14 31 -20.5 65t1.5 77q7 43 23.5 77t40.5 65l-34 44l69 60l40 -44q32 22 69.5 35t85.5 13t81.5 -13t59.5 -35l52 44z" />
    <glyph glyph-name="yen" unicode="&#xa5;" 
d="M336 0h-94l41 260h-236l9 58h236l2 10l-39 94h-182l9 58h148l-115 274h108l134 -322l236 322h108l-201 -274h148l-9 -58h-181l-70 -94l-2 -10h236l-9 -58h-236z" />
    <glyph glyph-name="brokenbar" unicode="&#xa6;" horiz-adv-x="570" 
d="M393 411h-86l40 250h86zM314 -89h-86l39 250h86z" />
    <glyph glyph-name="section" unicode="&#xa7;" 
d="M210 261q-25 13 -46 26.5t-36 31t-21 41.5t-1 58q9 55 41.5 92.5t80.5 69.5q-17 24 -24.5 51.5t-2.5 59.5q6 38 27.5 70.5t51.5 56t66.5 37t73.5 13.5q38 0 71.5 -11t57 -32.5t36 -53t8.5 -71.5h-87q2 22 -5.5 38.5t-21.5 27.5t-32.5 17t-38.5 6q-21 0 -40.5 -8
t-35.5 -21.5t-27 -31.5t-14 -39q-3 -20 2 -35.5t14.5 -27.5t23.5 -21t29 -17l123 -67q21 -12 43.5 -25.5t39.5 -31t26 -40t5 -52.5q-8 -50 -39.5 -95t-76.5 -74q45 -49 34 -122q-7 -45 -30.5 -80.5t-57 -60.5t-74 -38.5t-82.5 -13.5q-48 0 -87 14.5t-65 42.5t-37 68t-3 90
l3 15h89q-6 -30 -1 -57t19.5 -47.5t38 -32t55.5 -11.5q24 0 47.5 8t43.5 23t33.5 36t17.5 46q3 22 -3.5 38.5t-19.5 29.5t-29.5 22.5t-32.5 18.5zM428 248q29 17 50.5 45.5t26.5 59.5q3 18 -1.5 31.5t-13.5 23.5t-21.5 18t-25.5 15l-169 93q-30 -17 -51 -45.5t-26 -60.5
q-3 -19 2.5 -33t16 -25t24 -19.5t27.5 -15.5z" />
    <glyph glyph-name="dieresis" unicode="&#xa8;" horiz-adv-x="470" 
d="M451 694q25 0 40 -17.5t10 -42.5q-4 -26 -24 -43.5t-45 -17.5q-26 0 -41 17.5t-11 43.5q5 25 25 42.5t46 17.5zM240 694q25 0 40 -17.5t10 -42.5q-4 -26 -24 -43.5t-45 -17.5q-26 0 -41 17.5t-11 43.5q5 25 25 42.5t46 17.5z" />
    <glyph glyph-name="copyright" unicode="&#xa9;" horiz-adv-x="800" 
d="M612 458q-3 42 -32.5 63.5t-79.5 21.5q-41 0 -72 -14t-53 -37t-35.5 -51.5t-17.5 -58.5q-6 -35 -0.5 -65t22 -52t43 -34.5t64.5 -12.5q100 0 137 89h61q-10 -36 -31 -64t-49.5 -48t-61.5 -30.5t-67 -10.5q-50 0 -87.5 17.5t-61.5 48.5t-33 72t-1 88q8 49 29.5 90.5
t54.5 72t76 47.5t94 17q70 0 114.5 -39.5t47.5 -109.5h-61zM512 706q-68 0 -132 -25.5t-116 -69.5t-87.5 -104t-46.5 -130q-11 -69 5.5 -129.5t54.5 -104.5t94 -69.5t124 -25.5q67 0 131 25.5t116 69.5t88 104.5t47 129.5q11 70 -6 130t-55 104t-94 69.5t-123 25.5zM397 -16
q-83 0 -149.5 30.5t-111.5 84t-64 125t-6 153.5t55 153.5t103.5 125t138 84t159.5 30.5q82 0 149 -30.5t112 -84t64.5 -125t6.5 -153.5t-55 -153.5t-104 -125t-139 -84t-159 -30.5z" />
    <glyph glyph-name="ordfeminine" unicode="&#xaa;" horiz-adv-x="334" 
d="M398 481h-59l7 43h-2q-21 -23 -49.5 -38t-61.5 -15q-35 0 -60 12.5t-40.5 33.5t-21 48.5t-0.5 57.5q4 29 18.5 55.5t36.5 47t50.5 32.5t61.5 12q34 0 58 -15t39 -40h1l8 46h59zM249 519q24 0 44 8t34.5 22t24 32.5t12.5 39.5q7 41 -14.5 71t-68.5 30q-23 0 -42 -8.5
t-33.5 -22.5t-24 -32.5t-12.5 -37.5q-3 -20 0.5 -38.5t13.5 -32.5t26.5 -22.5t39.5 -8.5z" />
    <glyph glyph-name="guillemotleft" unicode="&#xab;" horiz-adv-x="523" 
d="M288 129l-62 -41l-145 232l220 240l49 -41l-180 -199zM480 129l-62 -41l-145 232l220 240l49 -41l-180 -199z" />
    <glyph glyph-name="logicalnot" unicode="&#xac;" 
d="M506 299h-426l14 86h512l-43 -270h-86z" />
    <glyph glyph-name="hyphen" unicode="&#xad;" horiz-adv-x="332" 
d="M333 358l-12 -75h-219l12 75h219z" />
    <glyph glyph-name="hyphen" unicode="&#x2010;" horiz-adv-x="332" 
d="M333 358l-12 -75h-219l12 75h219z" />
    <glyph glyph-name="registered" unicode="&#xae;" horiz-adv-x="800" 
d="M396 531l-17 -110h68q22 0 47 -0.5t46.5 3t37 14t19.5 33.5q3 21 -3.5 33t-19 18t-30.5 7.5t-38 1.5h-110zM604 153h-73l-80 204h-82l-33 -204h-64l70 442h186q30 0 56.5 -5t45.5 -18.5t28 -36t4 -57.5q-5 -33 -19 -55.5t-32.5 -37t-41 -21t-44.5 -7.5zM512 706
q-68 0 -132 -25.5t-116 -69.5t-87.5 -104t-46.5 -130q-11 -69 5.5 -129.5t54.5 -104.5t94 -69.5t124 -25.5q67 0 131 25.5t116 69.5t88 104.5t47 129.5q11 70 -6 130t-55 104t-94 69.5t-123 25.5zM397 -16q-83 0 -149.5 30.5t-111.5 84t-64 125t-6 153.5t55 153.5t103.5 125
t138 84t159.5 30.5q82 0 149 -30.5t112 -84t64.5 -125t6.5 -153.5t-55 -153.5t-104 -125t-139 -84t-159 -30.5z" />
    <glyph glyph-name="macron" unicode="&#xaf;" horiz-adv-x="500" 
d="M541 694l-11 -68h-361l11 68h361z" />
    <glyph glyph-name="degree" unicode="&#xb0;" horiz-adv-x="400" 
d="M313 720q-21 0 -40.5 -8t-35 -21.5t-26 -31.5t-13.5 -39q-7 -43 17 -71.5t67 -28.5q21 0 40.5 7.5t35 21t26.5 32t14 39.5t-1.5 39t-16 31.5t-29 21.5t-38.5 8zM448 620q-5 -31 -21 -58.5t-40 -47.5t-53 -32t-60 -12t-56.5 12t-42.5 32t-24.5 47.5t-2.5 58.5
q4 31 20.5 58t40 47.5t53 32.5t60.5 12t56 -12t42.5 -32.5t25 -47.5t2.5 -58z" />
    <glyph glyph-name="plusminus" unicode="&#xb1;" 
d="M421 562l-27 -173h213l-14 -86h-213l-27 -173h-86l27 173h-213l14 86h213l27 173h86zM47 86h512l-14 -86h-512z" />
    <glyph glyph-name="twosuperior" unicode="&#xb2;" horiz-adv-x="346" 
d="M389 360l-9 -58h-317l253 243q18 17 32.5 37.5t18.5 43.5q3 18 -3 32.5t-17.5 25t-27 16.5t-30.5 6q-37 0 -64.5 -21t-35.5 -55h-67q16 60 62.5 97t113.5 37q31 0 57.5 -10t45 -28t27 -43t3.5 -55q-4 -25 -16 -50t-31 -43l-183 -175h188z" />
    <glyph glyph-name="threesuperior" unicode="&#xb3;" horiz-adv-x="346" 
d="M254 576q42 0 71 16.5t34 50.5q5 35 -18 52t-54 17q-29 0 -54 -13.5t-30 -42.5h-67q18 56 59.5 85t102.5 29q29 0 54 -8.5t42.5 -24t25.5 -38.5t4 -51q-5 -33 -26.5 -59t-56.5 -43q34 -16 47.5 -45.5t8.5 -66.5q-5 -32 -22 -57t-41.5 -42.5t-55 -27t-63.5 -9.5
q-29 0 -53.5 8.5t-42.5 24.5t-27 38.5t-6 50.5h64q-1 -34 20 -49t59 -15q36 0 67 21.5t37 58.5q6 39 -20 61.5t-68 20.5z" />
    <glyph glyph-name="acute" unicode="&#xb4;" horiz-adv-x="360" 
d="M393 690l-187 -149l-40 27l151 166z" />
    <glyph glyph-name="mu" unicode="&#xb5;" horiz-adv-x="512" 
d="M222 468l-41 -259q-5 -28 -4.5 -53.5t9.5 -45t28.5 -31t52.5 -11.5t56 11.5t38 31t23 45t13 53.5l41 259h90l-42 -269q-8 -48 -26 -87.5t-46.5 -68t-68.5 -44t-92 -15.5q-30 0 -57 13.5t-44 30.5l-46 -296h-90l116 736h90z" />
    <glyph glyph-name="paragraph" unicode="&#xb6;" 
d="M644 670h-61l-130 -823h-84l130 823h-62l-130 -823h-84l69 436q-42 0 -76 14.5t-57 42t-33.5 67t-5.5 90.5q4 45 25.5 91t56 83t79 60t94.5 23h282z" />
    <glyph glyph-name="periodcentered" unicode="&#xb7;" horiz-adv-x="289" 
d="M195 314q24 0 38 -17.5t11 -40.5q-5 -24 -24.5 -41t-43.5 -17t-38.5 17t-9.5 41q3 23 23 40.5t44 17.5z" />
    <glyph glyph-name="periodcentered" unicode="&#x22c5;" horiz-adv-x="289" 
d="M195 314q24 0 38 -17.5t11 -40.5q-5 -24 -24.5 -41t-43.5 -17t-38.5 17t-9.5 41q3 23 23 40.5t44 17.5z" />
    <glyph glyph-name="periodcentered" unicode="&#x2219;" horiz-adv-x="289" 
d="M195 314q24 0 38 -17.5t11 -40.5q-5 -24 -24.5 -41t-43.5 -17t-38.5 17t-9.5 41q3 23 23 40.5t44 17.5z" />
    <glyph glyph-name="cedilla" unicode="&#xb8;" horiz-adv-x="330" 
d="M110 -181l-48 27l108 137l67 -29z" />
    <glyph glyph-name="onesuperior" unicode="&#xb9;" horiz-adv-x="346" 
d="M175 696l43 58h116l-71 -452h-64l62 394h-86z" />
    <glyph glyph-name="ordmasculine" unicode="&#xba;" horiz-adv-x="324" 
d="M276 718q-22 0 -42 -7.5t-36 -21t-27 -31.5t-14 -38t2 -37.5t17 -30.5t29.5 -21t39.5 -8t42 8t36 21t27 30.5t14 37.5q7 41 -18.5 69.5t-69.5 28.5zM284 770q34 0 62 -11.5t47 -31.5t27 -47.5t3 -59.5t-22 -59t-42 -47t-56.5 -31.5t-65.5 -11.5t-62 11.5t-46.5 31.5
t-27 47t-3.5 59t22 59.5t42 47.5t56.5 31.5t65.5 11.5z" />
    <glyph glyph-name="guillemotright" unicode="&#xbb;" horiz-adv-x="523" 
d="M455 320l-118 199l63 41l144 -240l-219 -232l-50 41zM263 320l-118 199l63 41l144 -240l-219 -232l-50 41z" />
    <glyph glyph-name="onequarter" unicode="&#xbc;" horiz-adv-x="867" 
d="M800 744l-561 -760l-46 28l560 758zM760 288h-3l-149 -164h126zM847 124l-10 -58h-49l-10 -66h-64l10 66h-243l372 407l-55 -349h49zM150 696l43 58h116l-71 -452h-64l62 394h-86z" />
    <glyph glyph-name="onehalf" unicode="&#xbd;" horiz-adv-x="867" 
d="M748 744l-561 -760l-46 28l560 758zM836 58l-9 -58h-317l253 243q18 17 33 37.5t18 43.5q3 18 -3 32.5t-17.5 25t-27 16.5t-30.5 6q-37 0 -64.5 -21t-35.5 -55h-67q17 60 63 97t113 37q31 0 57.5 -10t45 -28t27 -43t4.5 -55q-5 -25 -17 -50t-31 -43l-183 -175h188z
M236 696h-86l43 58h116l-71 -452h-64z" />
    <glyph glyph-name="threequarters" unicode="&#xbe;" horiz-adv-x="867" 
d="M856 744l-561 -760l-46 28l560 758zM275 576q42 0 71 16.5t34 50.5q5 35 -18 52t-54 17q-29 0 -54 -13.5t-30 -42.5h-67q18 56 59.5 85t102.5 29q29 0 54 -8.5t42.5 -24t25.5 -38.5t4 -51q-5 -33 -26.5 -59t-56.5 -43q34 -16 47.5 -45.5t8.5 -66.5q-5 -32 -22 -57
t-41.5 -42.5t-55 -27t-63.5 -9.5q-29 0 -53.5 8.5t-42.5 24.5t-27 38.5t-6 50.5h64q-1 -34 20 -49t59 -15q36 0 67 21.5t37 58.5q6 39 -20 61.5t-68 20.5zM760 288h-3l-149 -164h126zM847 124l-10 -58h-49l-10 -66h-64l10 66h-243l372 407l-55 -349h49z" />
    <glyph glyph-name="questiondown" unicode="&#xbf;" horiz-adv-x="453" 
d="M303 508q24 0 38.5 -17.5t10.5 -40.5q-4 -24 -23.5 -41t-43.5 -17t-38.5 17t-10.5 41q4 23 23.5 40.5t43.5 17.5zM86 157q4 33 21.5 62t44 51t58 35t63.5 13q33 0 60.5 -12.5t46 -34t26.5 -50.5t3 -63q-6 -36 -20.5 -60t-35 -40.5t-44.5 -27t-49 -19.5t-48.5 -17
t-43 -19.5t-33 -27.5t-17.5 -41q-7 -42 15.5 -65.5t62.5 -23.5q18 0 34.5 7t30 18.5t23 27t12.5 33.5q1 8 0.5 16t-1.5 16h94l-4 -33q-3 -37 -22.5 -68t-48 -53.5t-64 -35.5t-70.5 -13q-38 0 -68.5 13.5t-51 37t-29.5 56t-3 70.5q5 35 24 68t49 56q29 22 64.5 34t68.5 22
q14 4 28 10t26 14.5t20 20t11 28.5q5 30 -12 51t-47 21q-32 0 -55 -22.5t-28 -54.5h-91z" />
    <glyph glyph-name="Agrave" unicode="&#xc0;" horiz-adv-x="703" 
d="M449 995l98 -166l-48 -27l-140 149zM444 580l-182 -305h268zM209 189l-116 -189h-101l484 786l236 -786h-101l-56 189h-346z" />
    <glyph glyph-name="Aacute" unicode="&#xc1;" horiz-adv-x="703" 
d="M647 951l-188 -149l-40 27l152 166zM444 580l-182 -305h268zM209 189l-116 -189h-101l484 786l236 -786h-101l-56 189h-346z" />
    <glyph glyph-name="Acircumflex" unicode="&#xc2;" horiz-adv-x="703" 
d="M509 995l138 -145l-67 -46l-86 96l-117 -96l-50 46zM444 580l-182 -305h268zM209 189l-116 -189h-101l484 786l236 -786h-101l-56 189h-346z" />
    <glyph glyph-name="Atilde" unicode="&#xc3;" horiz-adv-x="703" 
d="M299 874l4 5q12 15 25 28.5t27.5 24t31 17t36.5 6.5q26 0 46.5 -7.5t38.5 -18.5t34.5 -19t33.5 -8q22 0 40 15.5t31 32.5l41 -39q-23 -35 -56 -58.5t-75 -23.5q-21 0 -40.5 8t-38.5 18q-18 9 -36 17t-38 8q-19 0 -36.5 -15t-27.5 -31zM444 580l-182 -305h268zM209 189
l-116 -189h-101l484 786l236 -786h-101l-56 189h-346z" />
    <glyph glyph-name="Adieresis" unicode="&#xc4;" horiz-adv-x="703" 
d="M609 955q25 0 40 -17.5t11 -42.5q-5 -26 -25 -43.5t-45 -17.5q-26 0 -41 17.5t-10 43.5q4 25 24 42.5t46 17.5zM398 955q25 0 40 -17.5t11 -42.5q-5 -26 -25 -43.5t-45 -17.5q-26 0 -41 17.5t-10 43.5q4 25 24 42.5t46 17.5zM444 580l-182 -305h268zM209 189l-116 -189
h-101l484 786l236 -786h-101l-56 189h-346z" />
    <glyph glyph-name="Aring" unicode="&#xc5;" horiz-adv-x="703" 
d="M486 849q19 0 35 13t19 32t-8.5 32.5t-30.5 13.5q-18 0 -33.5 -13.5t-18.5 -32.5t8 -32t29 -13zM508 985q19 0 34.5 -7t26 -19.5t15 -29t1.5 -35.5t-13 -35.5t-24 -28.5t-32 -19t-37 -7q-38 0 -59.5 26t-15.5 64t36 64.5t68 26.5zM444 580l-182 -305h268zM209 189
l-116 -189h-101l484 786l236 -786h-101l-56 189h-346z" />
    <glyph glyph-name="AE" unicode="&#xc6;" horiz-adv-x="997" 
d="M457 567l-184 -292h268zM219 189l-116 -189h-103l481 754h330l25 -86h-309l57 -211h301l27 -86h-302l76 -285h311l24 -86h-406l-53 189h-343z" />
    <glyph glyph-name="Ccedilla" unicode="&#xc7;" horiz-adv-x="661" 
d="M276 -181l-48 27l108 137l67 -29zM718 610q-35 36 -84.5 55t-103.5 19q-63 0 -121.5 -24.5t-105 -66.5t-78 -98t-41.5 -119q-10 -62 3.5 -117.5t46.5 -97.5t83.5 -66.5t113.5 -24.5q56 0 110.5 20t102.5 58l-17 -111q-48 -26 -102.5 -39.5t-104.5 -13.5q-81 0 -147.5 30
t-111.5 82.5t-65 123.5t-7 153q13 84 56 156.5t106 126t141 84t161 30.5q50 0 96.5 -12.5t85.5 -38.5z" />
    <glyph glyph-name="Egrave" unicode="&#xc8;" horiz-adv-x="521" 
d="M378 995l98 -166l-48 -27l-140 149zM191 754h405l-13 -86h-311l-34 -211h302l-13 -86h-302l-45 -285h311l-14 -86h-405z" />
    <glyph glyph-name="Eacute" unicode="&#xc9;" horiz-adv-x="521" 
d="M556 951l-188 -149l-40 27l152 166zM191 754h405l-13 -86h-311l-34 -211h302l-13 -86h-302l-45 -285h311l-14 -86h-405z" />
    <glyph glyph-name="Ecircumflex" unicode="&#xca;" horiz-adv-x="521" 
d="M430 995l138 -145l-67 -46l-86 96l-117 -96l-50 46zM191 754h405l-13 -86h-311l-34 -211h302l-13 -86h-302l-45 -285h311l-14 -86h-405z" />
    <glyph glyph-name="Edieresis" unicode="&#xcb;" horiz-adv-x="521" 
d="M530 955q25 0 40 -17.5t11 -42.5q-5 -26 -25 -43.5t-45 -17.5q-26 0 -41 17.5t-10 43.5q4 25 24 42.5t46 17.5zM319 955q25 0 40 -17.5t11 -42.5q-5 -26 -25 -43.5t-45 -17.5q-26 0 -41 17.5t-10 43.5q4 25 24 42.5t46 17.5zM191 754h405l-13 -86h-311l-34 -211h302
l-13 -86h-302l-45 -285h311l-14 -86h-405z" />
    <glyph glyph-name="Igrave" unicode="&#xcc;" horiz-adv-x="232" 
d="M223 995l98 -166l-48 -27l-140 149zM163 0h-94l119 754h94z" />
    <glyph glyph-name="Iacute" unicode="&#xcd;" horiz-adv-x="232" 
d="M401 951l-188 -149l-40 27l152 166zM163 0h-94l119 754h94z" />
    <glyph glyph-name="Icircumflex" unicode="&#xce;" horiz-adv-x="232" 
d="M273 995l138 -145l-67 -46l-86 96l-117 -96l-50 46zM163 0h-94l119 754h94z" />
    <glyph glyph-name="Idieresis" unicode="&#xcf;" horiz-adv-x="232" 
d="M373 955q25 0 40 -17.5t11 -42.5q-5 -26 -25 -43.5t-45 -17.5q-26 0 -41 17.5t-10 43.5q4 25 24 42.5t46 17.5zM162 955q25 0 40 -17.5t11 -42.5q-5 -26 -25 -43.5t-45 -17.5q-26 0 -41 17.5t-10 43.5q4 25 24 42.5t46 17.5zM163 0h-94l119 754h94z" />
    <glyph glyph-name="Eth" unicode="&#xd0;" horiz-adv-x="665" 
d="M228 442h134l-13 -80h-134l-43 -276h33q72 0 139 14.5t121.5 48.5t92.5 90t51 138t-7 138t-64 90t-106.5 48.5t-134.5 14.5h-33zM183 754h156q87 0 160 -23t123.5 -69.5t73 -116.5t7.5 -164q-15 -96 -59.5 -168t-109.5 -119t-146.5 -70.5t-170.5 -23.5h-153l57 362h-64
l13 80h64z" />
    <glyph glyph-name="Ntilde" unicode="&#xd1;" horiz-adv-x="785" 
d="M340 874l4 5q12 15 25 28.5t27.5 24t31 17t36.5 6.5q26 0 46.5 -7.5t38.5 -18.5t34.5 -19t33.5 -8q22 0 40 15.5t31 32.5l41 -39q-23 -35 -56 -58.5t-75 -23.5q-21 0 -40.5 8t-38.5 18q-18 9 -36 17t-38 8q-19 0 -36.5 -15t-27.5 -31zM188 790l472 -593l88 557h94
l-124 -785l-472 593l-89 -562h-94z" />
    <glyph glyph-name="Ograve" unicode="&#xd2;" horiz-adv-x="828" 
d="M521 995l98 -166l-48 -27l-140 149zM425 72q61 0 119.5 23.5t106 64.5t80.5 96.5t44 120.5q10 62 -3.5 117.5t-47 97t-85 66t-117.5 24.5t-125.5 -24.5t-106 -66t-77 -97t-40.5 -117.5q-11 -65 4.5 -120.5t50 -96.5t85.5 -64.5t112 -23.5zM536 770q81 0 148 -31
t112.5 -84.5t65.5 -125t7 -152.5q-14 -84 -56.5 -156t-104.5 -124.5t-138.5 -82.5t-158.5 -30t-149 30t-112 82.5t-65 124.5t-6 156q13 81 55.5 152.5t104.5 125t139 84.5t158 31z" />
    <glyph glyph-name="Oacute" unicode="&#xd3;" horiz-adv-x="828" 
d="M699 951l-188 -149l-40 27l152 166zM425 72q61 0 119.5 23.5t106 64.5t80.5 96.5t44 120.5q10 62 -3.5 117.5t-47 97t-85 66t-117.5 24.5t-125.5 -24.5t-106 -66t-77 -97t-40.5 -117.5q-11 -65 4.5 -120.5t50 -96.5t85.5 -64.5t112 -23.5zM536 770q81 0 148 -31
t112.5 -84.5t65.5 -125t7 -152.5q-14 -84 -56.5 -156t-104.5 -124.5t-138.5 -82.5t-158.5 -30t-149 30t-112 82.5t-65 124.5t-6 156q13 81 55.5 152.5t104.5 125t139 84.5t158 31z" />
    <glyph glyph-name="Ocircumflex" unicode="&#xd4;" horiz-adv-x="828" 
d="M571 995l138 -145l-67 -46l-86 96l-117 -96l-50 46zM425 72q61 0 119.5 23.5t106 64.5t80.5 96.5t44 120.5q10 62 -3.5 117.5t-47 97t-85 66t-117.5 24.5t-125.5 -24.5t-106 -66t-77 -97t-40.5 -117.5q-11 -65 4.5 -120.5t50 -96.5t85.5 -64.5t112 -23.5zM536 770
q81 0 148 -31t112.5 -84.5t65.5 -125t7 -152.5q-14 -84 -56.5 -156t-104.5 -124.5t-138.5 -82.5t-158.5 -30t-149 30t-112 82.5t-65 124.5t-6 156q13 81 55.5 152.5t104.5 125t139 84.5t158 31z" />
    <glyph glyph-name="Otilde" unicode="&#xd5;" horiz-adv-x="828" 
d="M361 874l4 5q12 15 25 28.5t27.5 24t31 17t36.5 6.5q26 0 46.5 -7.5t38.5 -18.5t34.5 -19t33.5 -8q22 0 40 15.5t31 32.5l41 -39q-23 -35 -56 -58.5t-75 -23.5q-21 0 -40.5 8t-38.5 18q-18 9 -36 17t-38 8q-19 0 -36.5 -15t-27.5 -31zM425 72q61 0 119.5 23.5t106 64.5
t80.5 96.5t44 120.5q10 62 -3.5 117.5t-47 97t-85 66t-117.5 24.5t-125.5 -24.5t-106 -66t-77 -97t-40.5 -117.5q-11 -65 4.5 -120.5t50 -96.5t85.5 -64.5t112 -23.5zM536 770q81 0 148 -31t112.5 -84.5t65.5 -125t7 -152.5q-14 -84 -56.5 -156t-104.5 -124.5t-138.5 -82.5
t-158.5 -30t-149 30t-112 82.5t-65 124.5t-6 156q13 81 55.5 152.5t104.5 125t139 84.5t158 31z" />
    <glyph glyph-name="Odieresis" unicode="&#xd6;" horiz-adv-x="828" 
d="M671 955q25 0 40 -17.5t11 -42.5q-5 -26 -25 -43.5t-45 -17.5q-26 0 -41 17.5t-10 43.5q4 25 24 42.5t46 17.5zM460 955q25 0 40 -17.5t11 -42.5q-5 -26 -25 -43.5t-45 -17.5q-26 0 -41 17.5t-10 43.5q4 25 24 42.5t46 17.5zM425 72q61 0 119.5 23.5t106 64.5t80.5 96.5
t44 120.5q10 62 -3.5 117.5t-47 97t-85 66t-117.5 24.5t-125.5 -24.5t-106 -66t-77 -97t-40.5 -117.5q-11 -65 4.5 -120.5t50 -96.5t85.5 -64.5t112 -23.5zM536 770q81 0 148 -31t112.5 -84.5t65.5 -125t7 -152.5q-14 -84 -56.5 -156t-104.5 -124.5t-138.5 -82.5t-158.5 -30
t-149 30t-112 82.5t-65 124.5t-6 156q13 81 55.5 152.5t104.5 125t139 84.5t158 31z" />
    <glyph glyph-name="multiply" unicode="&#xd7;" 
d="M174 512l165 -195l227 195l50 -61l-225 -195l164 -195l-70 -61l-165 195l-227 -195l-50 61l226 195l-165 195z" />
    <glyph glyph-name="Oslash" unicode="&#xd8;" horiz-adv-x="828" 
d="M130 123q-35 51 -49 115.5t-2 138.5q13 81 55.5 152.5t104.5 125t139 84.5t158 31q74 0 135.5 -25.5t106.5 -70.5l111 95l45 -53l-113 -96q32 -51 45.5 -112.5t2.5 -130.5q-14 -84 -56.5 -156t-104.5 -124.5t-138.5 -82.5t-158.5 -30q-71 0 -130.5 22.5t-104.5 63.5
l-120 -102l-46 53zM705 612q-32 33 -78.5 51.5t-104.5 18.5q-66 0 -125.5 -24.5t-106 -66t-77 -97t-40.5 -117.5q-9 -54 0.5 -102t34.5 -86zM252 135q33 -29 77 -46t96 -17q61 0 119.5 23.5t106 64.5t80.5 96.5t44 120.5q15 103 -28 180z" />
    <glyph glyph-name="Ugrave" unicode="&#xd9;" horiz-adv-x="669" 
d="M442 995l98 -166l-48 -27l-140 149zM272 754l-70 -445q-8 -46 -6.5 -89t16.5 -76t47.5 -52.5t86.5 -19.5t92.5 19.5t64.5 52.5t40.5 76t22.5 89l70 445h94l-75 -477q-10 -62 -37 -115.5t-69 -93t-97 -62t-120 -22.5t-112.5 22.5t-76.5 62t-39.5 93t-0.5 115.5l75 477h94z
" />
    <glyph glyph-name="Uacute" unicode="&#xda;" horiz-adv-x="669" 
d="M620 951l-188 -149l-40 27l152 166zM272 754l-70 -445q-8 -46 -6.5 -89t16.5 -76t47.5 -52.5t86.5 -19.5t92.5 19.5t64.5 52.5t40.5 76t22.5 89l70 445h94l-75 -477q-10 -62 -37 -115.5t-69 -93t-97 -62t-120 -22.5t-112.5 22.5t-76.5 62t-39.5 93t-0.5 115.5l75 477h94z
" />
    <glyph glyph-name="Ucircumflex" unicode="&#xdb;" horiz-adv-x="669" 
d="M492 995l138 -145l-67 -46l-86 96l-117 -96l-50 46zM272 754l-70 -445q-8 -46 -6.5 -89t16.5 -76t47.5 -52.5t86.5 -19.5t92.5 19.5t64.5 52.5t40.5 76t22.5 89l70 445h94l-75 -477q-10 -62 -37 -115.5t-69 -93t-97 -62t-120 -22.5t-112.5 22.5t-76.5 62t-39.5 93
t-0.5 115.5l75 477h94z" />
    <glyph glyph-name="Udieresis" unicode="&#xdc;" horiz-adv-x="669" 
d="M592 955q25 0 40 -17.5t11 -42.5q-5 -26 -25 -43.5t-45 -17.5q-26 0 -41 17.5t-10 43.5q4 25 24 42.5t46 17.5zM381 955q25 0 40 -17.5t11 -42.5q-5 -26 -25 -43.5t-45 -17.5q-26 0 -41 17.5t-10 43.5q4 25 24 42.5t46 17.5zM272 754l-70 -445q-8 -46 -6.5 -89t16.5 -76
t47.5 -52.5t86.5 -19.5t92.5 19.5t64.5 52.5t40.5 76t22.5 89l70 445h94l-75 -477q-10 -62 -37 -115.5t-69 -93t-97 -62t-120 -22.5t-112.5 22.5t-76.5 62t-39.5 93t-0.5 115.5l75 477h94z" />
    <glyph glyph-name="Yacute" unicode="&#xdd;" horiz-adv-x="573" 
d="M602 951l-188 -149l-40 27l152 166zM113 754h108l134 -322l236 322h108l-313 -426l-52 -328h-94l52 328z" />
    <glyph glyph-name="Thorn" unicode="&#xde;" horiz-adv-x="495" 
d="M207 260h30q36 0 72.5 4.5t67.5 19.5t53 42t29 72q7 44 -7.5 70.5t-42.5 40t-63.5 17.5t-70.5 4h-25zM166 0h-94l119 754h94l-22 -140h14q87 0 143 -14.5t87 -42.5t39.5 -68.5t0.5 -92.5q-9 -60 -37 -101.5t-68.5 -68t-90 -38.5t-103.5 -12h-54z" />
    <glyph glyph-name="germandbls" unicode="&#xdf;" horiz-adv-x="580" 
d="M293 68q39 0 76.5 15t68.5 41t52.5 60.5t27.5 73.5q7 43 -3 76.5t-32.5 57t-56.5 36t-74 15.5l14 88q29 0 55.5 10.5t47.5 29t35 44t19 54.5q4 28 -2.5 51t-21.5 40t-37 26.5t-49 9.5q-50 0 -80 -23.5t-47 -59t-25 -77t-14 -77.5l-89 -559h-90l61 386h-40l13 84h40
l24 148q9 57 28 105t50.5 83t77 54.5t107.5 19.5q46 0 83 -16t62 -44.5t35 -68.5t3 -87q-17 -111 -122 -167q35 -12 60 -36.5t40 -57t19.5 -70t-1.5 -75.5q-9 -59 -40.5 -110t-76.5 -88.5t-100 -58t-112 -17.5z" />
    <glyph glyph-name="agrave" unicode="&#xe0;" horiz-adv-x="556" 
d="M358 734l99 -166l-48 -27l-141 149zM501 0h-90l12 73h-2q-34 -40 -78.5 -64.5t-95.5 -24.5q-54 0 -92 20.5t-61 55.5t-30.5 81t0.5 96q7 48 29.5 92.5t56.5 78t78 54t95 20.5q52 0 89.5 -25t58.5 -67h2l12 78h90zM274 64q37 0 67.5 13.5t53.5 37t37.5 54t20.5 65.5
q5 34 0 64.5t-21 53.5t-42 36.5t-62 13.5q-35 0 -64.5 -14t-52.5 -37.5t-38 -53.5t-20 -63t0 -63.5t20 -54.5t40 -38t61 -14z" />
    <glyph glyph-name="aacute" unicode="&#xe1;" horiz-adv-x="556" 
d="M531 690l-187 -149l-40 27l151 166zM501 0h-90l12 73h-2q-34 -40 -78.5 -64.5t-95.5 -24.5q-54 0 -92 20.5t-61 55.5t-30.5 81t0.5 96q7 48 29.5 92.5t56.5 78t78 54t95 20.5q52 0 89.5 -25t58.5 -67h2l12 78h90zM274 64q37 0 67.5 13.5t53.5 37t37.5 54t20.5 65.5
q5 34 0 64.5t-21 53.5t-42 36.5t-62 13.5q-35 0 -64.5 -14t-52.5 -37.5t-38 -53.5t-20 -63t0 -63.5t20 -54.5t40 -38t61 -14z" />
    <glyph glyph-name="acircumflex" unicode="&#xe2;" horiz-adv-x="556" 
d="M393 734l138 -145l-66 -46l-87 96l-116 -96l-51 46zM501 0h-90l12 73h-2q-34 -40 -78.5 -64.5t-95.5 -24.5q-54 0 -92 20.5t-61 55.5t-30.5 81t0.5 96q7 48 29.5 92.5t56.5 78t78 54t95 20.5q52 0 89.5 -25t58.5 -67h2l12 78h90zM274 64q37 0 67.5 13.5t53.5 37t37.5 54
t20.5 65.5q5 34 0 64.5t-21 53.5t-42 36.5t-62 13.5q-35 0 -64.5 -14t-52.5 -37.5t-38 -53.5t-20 -63t0 -63.5t20 -54.5t40 -38t61 -14z" />
    <glyph glyph-name="atilde" unicode="&#xe3;" horiz-adv-x="556" 
d="M184 613l4 5q12 15 25 28.5t27.5 24t31 17t36.5 6.5q26 0 46.5 -7.5t38.5 -18.5t34.5 -19t33.5 -8q22 0 39.5 15.5t31.5 32.5l41 -39q-23 -35 -56 -58.5t-75 -23.5q-21 0 -40.5 8t-38.5 18q-18 9 -36 17t-38 8q-19 0 -36.5 -15t-27.5 -31zM501 0h-90l12 73h-2
q-34 -40 -78.5 -64.5t-95.5 -24.5q-54 0 -92 20.5t-61 55.5t-30.5 81t0.5 96q7 48 29.5 92.5t56.5 78t78 54t95 20.5q52 0 89.5 -25t58.5 -67h2l12 78h90zM274 64q37 0 67.5 13.5t53.5 37t37.5 54t20.5 65.5q5 34 0 64.5t-21 53.5t-42 36.5t-62 13.5q-35 0 -64.5 -14
t-52.5 -37.5t-38 -53.5t-20 -63t0 -63.5t20 -54.5t40 -38t61 -14z" />
    <glyph glyph-name="adieresis" unicode="&#xe4;" horiz-adv-x="556" 
d="M494 694q25 0 40 -17.5t10 -42.5q-4 -26 -24 -43.5t-45 -17.5q-26 0 -41 17.5t-11 43.5q5 25 25 42.5t46 17.5zM283 694q25 0 40 -17.5t10 -42.5q-4 -26 -24 -43.5t-45 -17.5q-26 0 -41 17.5t-11 43.5q5 25 25 42.5t46 17.5zM501 0h-90l12 73h-2q-34 -40 -78.5 -64.5
t-95.5 -24.5q-54 0 -92 20.5t-61 55.5t-30.5 81t0.5 96q7 48 29.5 92.5t56.5 78t78 54t95 20.5q52 0 89.5 -25t58.5 -67h2l12 78h90zM274 64q37 0 67.5 13.5t53.5 37t37.5 54t20.5 65.5q5 34 0 64.5t-21 53.5t-42 36.5t-62 13.5q-35 0 -64.5 -14t-52.5 -37.5t-38 -53.5
t-20 -63t0 -63.5t20 -54.5t40 -38t61 -14z" />
    <glyph glyph-name="aring" unicode="&#xe5;" horiz-adv-x="556" 
d="M373 598q19 0 34.5 13t18.5 32t-8.5 32.5t-30.5 13.5q-18 0 -33.5 -13.5t-18.5 -32.5t8.5 -32t29.5 -13zM394 734q19 0 34.5 -7t26 -19.5t15 -29t1.5 -35.5t-12.5 -35.5t-24 -28.5t-32 -19t-36.5 -7q-38 0 -60 26t-16 64t36 64.5t68 26.5zM501 0h-90l12 73h-2
q-34 -40 -78.5 -64.5t-95.5 -24.5q-54 0 -92 20.5t-61 55.5t-30.5 81t0.5 96q7 48 29.5 92.5t56.5 78t78 54t95 20.5q52 0 89.5 -25t58.5 -67h2l12 78h90zM274 64q37 0 67.5 13.5t53.5 37t37.5 54t20.5 65.5q5 34 0 64.5t-21 53.5t-42 36.5t-62 13.5q-35 0 -64.5 -14
t-52.5 -37.5t-38 -53.5t-20 -63t0 -63.5t20 -54.5t40 -38t61 -14z" />
    <glyph glyph-name="ae" unicode="&#xe6;" horiz-adv-x="807" 
d="M470 219q-5 -30 0.5 -58t20.5 -49.5t39 -34.5t56 -13q52 0 87.5 24.5t67.5 66.5l69 -43q-43 -61 -106 -94.5t-132 -33.5q-54 0 -96 24t-70 63q-36 -45 -89 -66t-104 -21q-35 0 -67 9t-56 28t-36 48t-6 68q6 38 25 67.5t46.5 49.5t61 30t69.5 10q38 0 73.5 -9.5
t61.5 -33.5l5 32q19 121 -104 121q-32 0 -65 -2.5t-65 -12.5l12 80q36 7 72 10t71 3q22 0 45 -4.5t43 -14t36 -24t24 -34.5q37 38 86.5 57.5t103.5 19.5q56 0 94 -19.5t60 -53t28 -79t-2 -97.5l-2 -14h-357zM256 218q-18 0 -38 -4.5t-38 -14.5t-31.5 -24.5t-16.5 -35.5
t6 -35.5t24.5 -23t35 -12.5t36.5 -4q18 0 38.5 4t39.5 13.5t33 24.5t17 36q4 21 -6 35.5t-26.5 23.5t-36.5 13t-37 4zM749 287q1 53 -27.5 85t-82.5 32q-53 0 -94 -33t-58 -84h262z" />
    <glyph glyph-name="ccedilla" unicode="&#xe7;" horiz-adv-x="441" 
d="M166 -181l-48 27l108 137l67 -29zM459 335q-45 63 -124 63q-33 0 -63.5 -13.5t-55 -36t-41.5 -52.5t-22 -62q-6 -36 1.5 -66.5t25.5 -52.5t45.5 -34.5t63.5 -12.5q39 0 73.5 16.5t64.5 45.5l-19 -115q-33 -17 -66 -24t-68 -7q-52 0 -94.5 18.5t-71.5 51.5t-41.5 78
t-4.5 98q9 54 36 100.5t66.5 80t89.5 52.5t104 19q32 0 63.5 -7.5t55.5 -23.5z" />
    <glyph glyph-name="egrave" unicode="&#xe8;" horiz-adv-x="488" 
d="M324 734l99 -166l-48 -27l-141 149zM428 287q1 53 -27.5 85t-82.5 32q-53 0 -94 -33t-58 -84h262zM151 219q-5 -30 0.5 -58t20.5 -49.5t39 -34.5t56 -13q52 0 87.5 24.5t67.5 66.5l69 -43q-43 -61 -106 -94.5t-132 -33.5q-54 0 -93.5 19t-63.5 52t-33 78t-1 97
q9 54 30.5 100t55.5 80t79.5 53t102.5 19q56 0 94 -19.5t60 -53t28 -79t-2 -97.5l-2 -14h-357z" />
    <glyph glyph-name="eacute" unicode="&#xe9;" horiz-adv-x="488" 
d="M497 690l-187 -149l-40 27l151 166zM428 287q1 53 -27.5 85t-82.5 32q-53 0 -94 -33t-58 -84h262zM151 219q-5 -30 0.5 -58t20.5 -49.5t39 -34.5t56 -13q52 0 87.5 24.5t67.5 66.5l69 -43q-43 -61 -106 -94.5t-132 -33.5q-54 0 -93.5 19t-63.5 52t-33 78t-1 97
q9 54 30.5 100t55.5 80t79.5 53t102.5 19q56 0 94 -19.5t60 -53t28 -79t-2 -97.5l-2 -14h-357z" />
    <glyph glyph-name="ecircumflex" unicode="&#xea;" horiz-adv-x="488" 
d="M359 734l138 -145l-66 -46l-87 96l-116 -96l-51 46zM428 287q1 53 -27.5 85t-82.5 32q-53 0 -94 -33t-58 -84h262zM151 219q-5 -30 0.5 -58t20.5 -49.5t39 -34.5t56 -13q52 0 87.5 24.5t67.5 66.5l69 -43q-43 -61 -106 -94.5t-132 -33.5q-54 0 -93.5 19t-63.5 52t-33 78
t-1 97q9 54 30.5 100t55.5 80t79.5 53t102.5 19q56 0 94 -19.5t60 -53t28 -79t-2 -97.5l-2 -14h-357z" />
    <glyph glyph-name="edieresis" unicode="&#xeb;" horiz-adv-x="488" 
d="M460 694q25 0 40 -17.5t10 -42.5q-4 -26 -24 -43.5t-45 -17.5q-26 0 -41 17.5t-11 43.5q5 25 25 42.5t46 17.5zM249 694q25 0 40 -17.5t10 -42.5q-4 -26 -24 -43.5t-45 -17.5q-26 0 -41 17.5t-11 43.5q5 25 25 42.5t46 17.5zM428 287q1 53 -27.5 85t-82.5 32
q-53 0 -94 -33t-58 -84h262zM151 219q-5 -30 0.5 -58t20.5 -49.5t39 -34.5t56 -13q52 0 87.5 24.5t67.5 66.5l69 -43q-43 -61 -106 -94.5t-132 -33.5q-54 0 -93.5 19t-63.5 52t-33 78t-1 97q9 54 30.5 100t55.5 80t79.5 53t102.5 19q56 0 94 -19.5t60 -53t28 -79t-2 -97.5
l-2 -14h-357z" />
    <glyph glyph-name="igrave" unicode="&#xec;" horiz-adv-x="254" 
d="M192 734l99 -166l-48 -27l-141 149zM172 0h-90l74 468h90z" />
    <glyph glyph-name="iacute" unicode="&#xed;" horiz-adv-x="254" 
d="M370 690l-187 -149l-40 27l151 166zM172 0h-90l74 468h90z" />
    <glyph glyph-name="icircumflex" unicode="&#xee;" horiz-adv-x="254" 
d="M242 734l138 -145l-66 -46l-87 96l-116 -96l-51 46zM172 0h-90l74 468h90z" />
    <glyph glyph-name="idieresis" unicode="&#xef;" horiz-adv-x="254" 
d="M343 694q25 0 40 -17.5t10 -42.5q-4 -26 -24 -43.5t-45 -17.5q-26 0 -41 17.5t-11 43.5q5 25 25 42.5t46 17.5zM132 694q25 0 40 -17.5t10 -42.5q-4 -26 -24 -43.5t-45 -17.5q-26 0 -41 17.5t-11 43.5q5 25 25 42.5t46 17.5zM172 0h-90l74 468h90z" />
    <glyph glyph-name="eth" unicode="&#xf0;" horiz-adv-x="540" 
d="M305 721q-22 30 -45.5 56t-48.5 49l65 51q54 -43 111 -113l158 83l33 -55l-153 -81q34 -50 63 -106.5t48 -116t26 -119.5t-2 -117q-10 -64 -37.5 -113.5t-66.5 -84t-88 -52.5t-101 -18q-53 0 -95 19t-70.5 52.5t-40.5 79t-4 98.5t34.5 98.5t65.5 79t87.5 52.5t101.5 19
q41 0 63.5 -12t37.5 -22q-20 62 -46 116.5t-58 103.5l-161 -84l-35 54zM333 396q-33 0 -64.5 -13t-56.5 -35t-42.5 -52t-22.5 -63t2.5 -62.5t25.5 -52t45.5 -35.5t60.5 -13t64.5 13t56.5 35.5t42.5 52t22.5 62.5t-2.5 63t-25.5 52t-45.5 35t-60.5 13z" />
    <glyph glyph-name="ntilde" unicode="&#xf1;" horiz-adv-x="523" 
d="M168 613l4 5q12 15 25 28.5t27.5 24t31 17t36.5 6.5q26 0 46.5 -7.5t38.5 -18.5t34.5 -19t33.5 -8q22 0 39.5 15.5t31.5 32.5l41 -39q-23 -35 -56 -58.5t-75 -23.5q-21 0 -40.5 8t-38.5 18q-18 9 -36 17t-38 8q-19 0 -36.5 -15t-27.5 -31zM216 405h2q27 38 68.5 57.5
t84.5 19.5q49 0 79 -15.5t44.5 -43t16 -64.5t-5.5 -80l-44 -279h-90l42 268q5 30 6 54.5t-7 42.5t-27 27.5t-53 9.5q-44 0 -70 -17.5t-41 -44.5t-22.5 -60t-12.5 -65l-34 -215h-90l74 468h90z" />
    <glyph glyph-name="ograve" unicode="&#xf2;" horiz-adv-x="540" 
d="M325 734l99 -166l-48 -27l-141 149zM333 396q-33 0 -64.5 -13t-56.5 -35t-42.5 -52t-22.5 -63t2.5 -62.5t25.5 -52t45.5 -35.5t60.5 -13t64.5 13t56.5 35.5t42.5 52t22.5 62.5t-2.5 63t-25.5 52t-45.5 35t-60.5 13zM346 482q52 0 95 -19t71.5 -52.5t40.5 -79t4 -98.5
t-35 -98.5t-66 -79t-88 -52.5t-101 -19q-53 0 -95 19t-70.5 52.5t-40.5 79t-4 98.5t34.5 98.5t65.5 79t87.5 52.5t101.5 19z" />
    <glyph glyph-name="oacute" unicode="&#xf3;" horiz-adv-x="540" 
d="M523 690l-187 -149l-40 27l151 166zM333 396q-33 0 -64.5 -13t-56.5 -35t-42.5 -52t-22.5 -63t2.5 -62.5t25.5 -52t45.5 -35.5t60.5 -13t64.5 13t56.5 35.5t42.5 52t22.5 62.5t-2.5 63t-25.5 52t-45.5 35t-60.5 13zM346 482q52 0 95 -19t71.5 -52.5t40.5 -79t4 -98.5
t-35 -98.5t-66 -79t-88 -52.5t-101 -19q-53 0 -95 19t-70.5 52.5t-40.5 79t-4 98.5t34.5 98.5t65.5 79t87.5 52.5t101.5 19z" />
    <glyph glyph-name="ocircumflex" unicode="&#xf4;" horiz-adv-x="540" 
d="M385 734l138 -145l-66 -46l-87 96l-116 -96l-51 46zM333 396q-33 0 -64.5 -13t-56.5 -35t-42.5 -52t-22.5 -63t2.5 -62.5t25.5 -52t45.5 -35.5t60.5 -13t64.5 13t56.5 35.5t42.5 52t22.5 62.5t-2.5 63t-25.5 52t-45.5 35t-60.5 13zM346 482q52 0 95 -19t71.5 -52.5
t40.5 -79t4 -98.5t-35 -98.5t-66 -79t-88 -52.5t-101 -19q-53 0 -95 19t-70.5 52.5t-40.5 79t-4 98.5t34.5 98.5t65.5 79t87.5 52.5t101.5 19z" />
    <glyph glyph-name="otilde" unicode="&#xf5;" horiz-adv-x="540" 
d="M176 613l4 5q12 15 25 28.5t27.5 24t31 17t36.5 6.5q26 0 46.5 -7.5t38.5 -18.5t34.5 -19t33.5 -8q22 0 39.5 15.5t31.5 32.5l41 -39q-23 -35 -56 -58.5t-75 -23.5q-21 0 -40.5 8t-38.5 18q-18 9 -36 17t-38 8q-19 0 -36.5 -15t-27.5 -31zM333 396q-33 0 -64.5 -13
t-56.5 -35t-42.5 -52t-22.5 -63t2.5 -62.5t25.5 -52t45.5 -35.5t60.5 -13t64.5 13t56.5 35.5t42.5 52t22.5 62.5t-2.5 63t-25.5 52t-45.5 35t-60.5 13zM346 482q52 0 95 -19t71.5 -52.5t40.5 -79t4 -98.5t-35 -98.5t-66 -79t-88 -52.5t-101 -19q-53 0 -95 19t-70.5 52.5
t-40.5 79t-4 98.5t34.5 98.5t65.5 79t87.5 52.5t101.5 19z" />
    <glyph glyph-name="odieresis" unicode="&#xf6;" horiz-adv-x="540" 
d="M486 694q25 0 40 -17.5t10 -42.5q-4 -26 -24 -43.5t-45 -17.5q-26 0 -41 17.5t-11 43.5q5 25 25 42.5t46 17.5zM275 694q25 0 40 -17.5t10 -42.5q-4 -26 -24 -43.5t-45 -17.5q-26 0 -41 17.5t-11 43.5q5 25 25 42.5t46 17.5zM333 396q-33 0 -64.5 -13t-56.5 -35
t-42.5 -52t-22.5 -63t2.5 -62.5t25.5 -52t45.5 -35.5t60.5 -13t64.5 13t56.5 35.5t42.5 52t22.5 62.5t-2.5 63t-25.5 52t-45.5 35t-60.5 13zM346 482q52 0 95 -19t71.5 -52.5t40.5 -79t4 -98.5t-35 -98.5t-66 -79t-88 -52.5t-101 -19q-53 0 -95 19t-70.5 52.5t-40.5 79
t-4 98.5t34.5 98.5t65.5 79t87.5 52.5t101.5 19z" />
    <glyph glyph-name="divide" unicode="&#xf7;" 
d="M370 512q26 0 41.5 -18.5t10.5 -44.5q-4 -26 -25 -43.5t-47 -17.5t-41 17.5t-11 43.5q5 26 25.5 44.5t46.5 18.5zM309 124q26 0 41 -18.5t11 -44.5q-5 -26 -25.5 -43.5t-46.5 -17.5t-41.5 17.5t-10.5 43.5q4 26 25 44.5t47 18.5zM80 299h512l-13 -86h-512z" />
    <glyph glyph-name="oslash" unicode="&#xf8;" horiz-adv-x="540" 
d="M87 76q-20 31 -29 71t-1 86q8 53 34.5 98.5t65.5 79t87.5 52.5t101.5 19q45 0 81.5 -13.5t65.5 -38.5l71 61l39 -43l-72 -63q18 -31 25.5 -69.5t0.5 -82.5q-8 -53 -35 -98.5t-66 -79t-88 -52.5t-101 -19q-43 0 -79 12.5t-62 35.5l-80 -70l-37 47zM199 96q35 -26 82 -26
q33 0 64.5 13t56.5 35.5t42.5 52t22.5 62.5q8 49 -11 86zM420 366q-17 14 -39 22t-48 8q-33 0 -64.5 -13t-56.5 -35t-42.5 -52t-22.5 -63q-8 -52 14 -92z" />
    <glyph glyph-name="ugrave" unicode="&#xf9;" horiz-adv-x="512" 
d="M311 734l99 -166l-48 -27l-141 149zM222 468l-41 -259q-5 -28 -4.5 -53.5t9.5 -45t28.5 -31t52.5 -11.5t56 11.5t38 31t23 45t13 53.5l41 259h90l-42 -269q-8 -48 -26 -87.5t-46.5 -68t-68.5 -44t-92 -15.5t-87 15.5t-54.5 44t-24.5 68t3 87.5l42 269h90z" />
    <glyph glyph-name="uacute" unicode="&#xfa;" horiz-adv-x="512" 
d="M509 690l-187 -149l-40 27l151 166zM222 468l-41 -259q-5 -28 -4.5 -53.5t9.5 -45t28.5 -31t52.5 -11.5t56 11.5t38 31t23 45t13 53.5l41 259h90l-42 -269q-8 -48 -26 -87.5t-46.5 -68t-68.5 -44t-92 -15.5t-87 15.5t-54.5 44t-24.5 68t3 87.5l42 269h90z" />
    <glyph glyph-name="ucircumflex" unicode="&#xfb;" horiz-adv-x="512" 
d="M371 734l138 -145l-66 -46l-87 96l-116 -96l-51 46zM222 468l-41 -259q-5 -28 -4.5 -53.5t9.5 -45t28.5 -31t52.5 -11.5t56 11.5t38 31t23 45t13 53.5l41 259h90l-42 -269q-8 -48 -26 -87.5t-46.5 -68t-68.5 -44t-92 -15.5t-87 15.5t-54.5 44t-24.5 68t3 87.5l42 269h90z
" />
    <glyph glyph-name="udieresis" unicode="&#xfc;" horiz-adv-x="512" 
d="M472 694q25 0 40 -17.5t10 -42.5q-4 -26 -24 -43.5t-45 -17.5q-26 0 -41 17.5t-11 43.5q5 25 25 42.5t46 17.5zM261 694q25 0 40 -17.5t10 -42.5q-4 -26 -24 -43.5t-45 -17.5q-26 0 -41 17.5t-11 43.5q5 25 25 42.5t46 17.5zM222 468l-41 -259q-5 -28 -4.5 -53.5t9.5 -45
t28.5 -31t52.5 -11.5t56 11.5t38 31t23 45t13 53.5l41 259h90l-42 -269q-8 -48 -26 -87.5t-46.5 -68t-68.5 -44t-92 -15.5t-87 15.5t-54.5 44t-24.5 68t3 87.5l42 269h90z" />
    <glyph glyph-name="yacute" unicode="&#xfd;" horiz-adv-x="484" 
d="M515 690l-187 -149l-40 27l151 166zM61 468h105l111 -297l194 297h101l-495 -736h-102l239 348z" />
    <glyph glyph-name="thorn" unicode="&#xfe;" horiz-adv-x="556" 
d="M298 64q37 0 67.5 13.5t53.5 37t37.5 54t20.5 65.5q5 34 0 64.5t-21 53.5t-42 36.5t-62 13.5q-35 0 -64.5 -14t-52.5 -37.5t-38 -53.5t-20 -63t0 -63.5t20 -54.5t40 -38t61 -14zM207 390h2q35 42 79.5 67t97.5 25q51 0 88.5 -20.5t60.5 -54t31.5 -78t1.5 -92.5
q-8 -50 -30.5 -96t-56.5 -81t-79 -55.5t-99 -20.5q-50 0 -87 24.5t-57 64.5h-2l-54 -341h-90l179 1136h90z" />
    <glyph glyph-name="ydieresis" unicode="&#xff;" horiz-adv-x="484" 
d="M468 694q25 0 40 -17.5t10 -42.5q-4 -26 -24 -43.5t-45 -17.5q-26 0 -41 17.5t-11 43.5q5 25 25 42.5t46 17.5zM257 694q25 0 40 -17.5t10 -42.5q-4 -26 -24 -43.5t-45 -17.5q-26 0 -41 17.5t-11 43.5q5 25 25 42.5t46 17.5zM61 468h105l111 -297l194 297h101l-495 -736
h-102l239 348z" />
    <glyph glyph-name="OE" unicode="&#x152;" horiz-adv-x="1143" 
d="M425 72q61 0 119.5 23.5t106 64.5t80.5 96.5t44 120.5q10 62 -3.5 117.5t-47 97t-85 66t-117.5 24.5t-125.5 -24.5t-106 -66t-77 -97t-40.5 -117.5q-11 -65 4.5 -120.5t50 -96.5t85.5 -64.5t112 -23.5zM738 126h-2q-63 -69 -148.5 -106t-176.5 -36q-82 0 -149 30
t-112 82.5t-65 124.5t-6 156q13 81 55.5 152.5t104.5 125t139 84.5t158 31q43 -2 84.5 -11.5t78 -28t66.5 -45.5t50 -63h2l20 132h395l-13 -86h-310l-34 -211h301l-13 -86h-301l-45 -285h310l-14 -86h-395z" />
    <glyph glyph-name="oe" unicode="&#x153;" horiz-adv-x="897" 
d="M560 219q-5 -30 0.5 -58t20.5 -49.5t39 -34.5t56 -13q52 0 87.5 24.5t67.5 66.5l69 -43q-43 -61 -106 -94.5t-132 -33.5q-59 -1 -108 26t-70 77q-42 -51 -100.5 -77.5t-116.5 -25.5q-53 0 -95 19t-70.5 52.5t-40.5 79t-4 98.5t34.5 98.5t65.5 79t87.5 52.5t101.5 19
q57 -2 107.5 -29t76.5 -76q78 100 209 105q56 0 94 -19.5t60 -53t28 -79t-2 -97.5l-2 -14h-357zM333 396q-33 0 -64.5 -13t-56.5 -35t-42.5 -52t-22.5 -63t2.5 -62.5t25.5 -52t45.5 -35.5t60.5 -13t64.5 13t56.5 35.5t42.5 52t22.5 62.5t-2.5 63t-25.5 52t-45.5 35t-60.5 13
zM836 287q1 53 -27.5 85t-82.5 32q-53 0 -94 -33t-58 -84h262z" />
    <glyph glyph-name="Scaron" unicode="&#x160;" horiz-adv-x="537" 
d="M335 995l85 -96l118 96l51 -46l-184 -145l-136 145zM504 611q-16 35 -41.5 53t-68.5 18q-23 0 -46.5 -7.5t-43.5 -21.5t-34.5 -33.5t-18.5 -44.5q-3 -22 4 -39t20 -30t30 -22.5t34 -16.5l51 -21q37 -16 68.5 -35.5t52 -46.5t29 -62.5t1.5 -82.5q-8 -51 -34 -94.5
t-63.5 -74.5t-84 -48.5t-97.5 -17.5q-46 0 -83 16t-63.5 44t-40 67t-12.5 84l98 20q-5 -31 2 -57.5t24 -45.5t42 -29.5t55 -10.5t57.5 12t49.5 32t36.5 46.5t19.5 56.5t-3 52.5t-23.5 39t-37 29t-44.5 22.5l-48 22q-30 14 -57 30.5t-46.5 39t-28 52.5t-2.5 69q7 46 31.5 82
t59.5 61t77 38.5t85 13.5q63 0 108 -29.5t68 -84.5z" />
    <glyph glyph-name="scaron" unicode="&#x161;" horiz-adv-x="384" 
d="M206 734l86 -96l117 96l52 -46l-184 -145l-136 145zM307 361q-5 17 -19 29t-34 12q-19 0 -36 -13t-21 -33q-2 -15 5.5 -26.5t21 -21.5t32 -18.5t37.5 -17.5t36.5 -20.5t30.5 -27.5t18.5 -36.5t1.5 -48.5q-5 -33 -22.5 -61.5t-43 -49.5t-56.5 -32.5t-64 -11.5
q-26 0 -49.5 7t-43 20.5t-33 33t-19.5 44.5l83 35q10 -26 26.5 -43t48.5 -17q29 0 53 18t29 48q3 19 -4 29.5t-21 21.5l-81 47q-18 10 -32.5 21t-24.5 24.5t-14 31t0 41.5q4 28 19 53t36.5 43.5t48 29t55.5 10.5q43 0 72.5 -22t42.5 -60z" />
    <glyph glyph-name="Ydieresis" unicode="&#x178;" horiz-adv-x="573" 
d="M556 955q25 0 40 -17.5t11 -42.5q-5 -26 -25 -43.5t-45 -17.5q-26 0 -41 17.5t-10 43.5q4 25 24 42.5t46 17.5zM345 955q25 0 40 -17.5t11 -42.5q-5 -26 -25 -43.5t-45 -17.5q-26 0 -41 17.5t-10 43.5q4 25 24 42.5t46 17.5zM113 754h108l134 -322l236 322h108l-313 -426
l-52 -328h-94l52 328z" />
    <glyph glyph-name="florin" unicode="&#x192;" 
d="M564 505l-20 -68h-131l-103 -303q-20 -61 -42 -112.5t-54 -89.5t-80 -59.5t-120 -21.5h-24l29 86h19q43 0 72 16t48 42.5t32 61t25 72.5l102 308h-65l20 68h70l41 124q14 44 32.5 82t45.5 65.5t63.5 43.5t87.5 16q34 0 59 -7l-29 -84q-17 7 -40 7q-30 0 -50.5 -11.5
t-34.5 -30.5t-23.5 -43t-18.5 -49l-40 -113h129z" />
    <glyph glyph-name="circumflex" unicode="&#x2c6;" horiz-adv-x="470" 
d="M350 734l138 -145l-66 -46l-87 96l-116 -96l-51 46z" />
    <glyph glyph-name="tilde" unicode="&#x2dc;" horiz-adv-x="510" 
d="M161 613l4 5q12 15 25 28.5t27.5 24t31 17t36.5 6.5q26 0 46.5 -7.5t38.5 -18.5t34.5 -19t33.5 -8q22 0 39.5 15.5t31.5 32.5l41 -39q-23 -35 -56 -58.5t-75 -23.5q-21 0 -40.5 8t-38.5 18q-18 9 -36 17t-38 8q-19 0 -36.5 -15t-27.5 -31z" />
    <glyph glyph-name="endash" unicode="&#x2013;" horiz-adv-x="500" 
d="M557 358l-12 -75h-500l12 75h500z" />
    <glyph glyph-name="emdash" unicode="&#x2014;" horiz-adv-x="1000" 
d="M927 358l-12 -75h-740l12 75h740z" />
    <glyph glyph-name="quoteleft" unicode="&#x2018;" horiz-adv-x="277" 
d="M140 503l175 267l52 -23l-153 -275z" />
    <glyph glyph-name="quoteright" unicode="&#x2019;" horiz-adv-x="277" 
d="M334 739l-175 -267l-53 23l154 275z" />
    <glyph glyph-name="quotesinglbase" unicode="&#x201a;" horiz-adv-x="277" 
d="M256 88l-175 -267l-52 23l154 275z" />
    <glyph glyph-name="quotedblleft" unicode="&#x201c;" horiz-adv-x="439" 
d="M140 503l175 267l52 -23l-153 -275zM306 503l175 267l52 -23l-153 -275z" />
    <glyph glyph-name="quotedblright" unicode="&#x201d;" horiz-adv-x="439" 
d="M496 739l-175 -267l-53 23l154 275zM330 739l-175 -267l-53 23l154 275z" />
    <glyph glyph-name="quotedblbase" unicode="&#x201e;" horiz-adv-x="439" 
d="M418 88l-175 -267l-52 23l154 275zM252 88l-175 -267l-52 23l154 275z" />
    <glyph glyph-name="dagger" unicode="&#x2020;" 
d="M471 868l-43 -275h181l-14 -86h-181l-94 -595h-90l94 595h-181l14 86h181l43 275h90z" />
    <glyph glyph-name="daggerdbl" unicode="&#x2021;" 
d="M471 868l-37 -239h181l-14 -86h-181l-19 -122h181l-14 -86h-181l-67 -422h-90l67 422h-181l14 86h181l19 122h-181l14 86h181l37 239h90z" />
    <glyph glyph-name="bullet" unicode="&#x2022;" 
d="M319 189q-39 0 -70.5 14.5t-53.5 40t-31 60t-3 73.5t26 73.5t49.5 60t66.5 40.5t76 15t71 -15t53.5 -40.5t31 -60t3.5 -73.5t-26.5 -73.5t-50.5 -60t-66.5 -40t-75.5 -14.5z" />
    <glyph glyph-name="ellipsis" unicode="&#x2026;" horiz-adv-x="1000" 
d="M182 100q24 0 38.5 -17.5t10.5 -40.5q-4 -24 -24 -41t-44 -17t-38 17t-10 41q4 23 23.5 40.5t43.5 17.5zM850 100q24 0 38.5 -17.5t10.5 -40.5q-4 -24 -24 -41t-44 -17t-38 17t-10 41q4 23 23.5 40.5t43.5 17.5zM516 100q24 0 38.5 -17.5t10.5 -40.5q-4 -24 -24 -41
t-44 -17t-38 17t-10 41q4 23 23.5 40.5t43.5 17.5z" />
    <glyph glyph-name="perthousand" unicode="&#x2030;" horiz-adv-x="1110" 
d="M955 267q-23 0 -45.5 -9t-41 -24t-31 -35.5t-15.5 -43.5q-4 -23 2 -43t19.5 -35t33.5 -24t43 -9t45.5 9t41 24t31 35t16.5 43q3 23 -3 43.5t-19.5 35.5t-33.5 24t-43 9zM965 327q36 0 65.5 -13.5t50 -36.5t30 -54.5t3.5 -67.5t-25 -67t-47 -54t-62.5 -36.5t-69.5 -13.5
t-65 13.5t-50 36.5t-29.5 54t-3.5 67t25 67.5t46.5 54.5t61.5 36.5t70 13.5zM563 267q-23 0 -45.5 -9t-41 -24t-31 -35.5t-15.5 -43.5q-4 -23 2 -43t19.5 -35t33.5 -24t43 -9t45.5 9t41 24t31 35t16.5 43q3 23 -3 43.5t-19.5 35.5t-33.5 24t-43 9zM573 327q36 0 65.5 -13.5
t50 -36.5t30 -54.5t3.5 -67.5t-25 -67t-47 -54t-62.5 -36.5t-69.5 -13.5t-65 13.5t-50 36.5t-29.5 54t-3.5 67t25 67.5t46.5 54.5t61.5 36.5t70 13.5zM720 744l-561 -760l-42 25l562 761zM310 710q-23 0 -45.5 -9t-40.5 -24t-30.5 -35.5t-16.5 -43.5t2 -43t19.5 -35
t33.5 -24t43 -9t45.5 9t41 24t31 35t16.5 43t-2.5 43.5t-20 35.5t-33.5 24t-43 9zM320 770q36 0 65.5 -13.5t50 -36.5t30 -54.5t3.5 -67.5t-25 -67t-47 -54t-62 -36.5t-69 -13.5t-65 13.5t-50.5 36.5t-30 54t-3.5 67t25 67.5t46.5 54.5t61.5 36.5t70 13.5z" />
    <glyph glyph-name="guilsinglleft" unicode="&#x2039;" horiz-adv-x="336" 
d="M280 129l-62 -41l-145 232l220 240l49 -41l-180 -199z" />
    <glyph glyph-name="guilsinglright" unicode="&#x203a;" horiz-adv-x="336" 
d="M276 320l-118 199l63 41l144 -240l-219 -232l-50 41z" />
    <glyph glyph-name="trademark" unicode="&#x2122;" horiz-adv-x="940" 
d="M483 690h-138l-56 -357h-64l56 357h-138l10 64h340zM959 333h-64l56 357h-2l-200 -357h-39l-84 357h-2l-56 -357h-64l66 421h105l74 -297l172 297h104z" />
    <glyph glyph-name="fraction" horiz-adv-x="165" 
d="M446 744l-561 -760l-46 28l560 758z" />
    <glyph glyph-name="fi" horiz-adv-x="512" 
d="M417 777q-13 6 -28 12.5t-29 6.5q-24 0 -39 -13.5t-24 -33t-13.5 -41.5t-7.5 -39l-32 -201h124l-13 -84h-124l-61 -384h-90l61 384h-41l13 84h41l36 228q6 38 18.5 71.5t34 58.5t52.5 39.5t75 14.5q34 0 61 -12zM503 745q26 0 41.5 -18.5t10.5 -44.5q-4 -26 -25 -43.5
t-47 -17.5t-41 17.5t-11 43.5q5 26 25.5 44.5t46.5 18.5zM430 0h-90l74 468h90z" />
    <glyph glyph-name="fl" horiz-adv-x="497" 
d="M417 777q-13 6 -28 12.5t-29 6.5q-24 0 -39 -13.5t-24 -33t-13.5 -41.5t-7.5 -39l-32 -201h124l-13 -84h-124l-61 -384h-90l61 384h-41l13 84h41l36 228q6 38 18.5 71.5t34 58.5t52.5 39.5t75 14.5q34 0 61 -12zM431 0h-90l137 868h90z" />
    <glyph glyph-name="breve" horiz-adv-x="490" 
d="M253 694q9 -35 29.5 -55t60.5 -20q41 0 67 20t48 55h71q-11 -31 -31 -57t-46 -44.5t-57 -29t-62 -10.5t-58.5 10.5t-47.5 29t-32.5 44.5t-13.5 57h72z" />
    <glyph glyph-name="dotaccent" horiz-adv-x="360" 
d="M291 694q25 0 40 -17.5t10 -42.5q-4 -26 -24 -43.5t-45 -17.5q-26 0 -41 17.5t-11 43.5q5 25 25 42.5t46 17.5z" />
    <glyph glyph-name="ring" horiz-adv-x="360" 
d="M275 598q19 0 34.5 13t18.5 32t-8.5 32.5t-30.5 13.5q-18 0 -33.5 -13.5t-18.5 -32.5t8.5 -32t29.5 -13zM296 734q19 0 34.5 -7t26 -19.5t15 -29t1.5 -35.5t-12.5 -35.5t-24 -28.5t-32 -19t-36.5 -7q-38 0 -60 26t-16 64t36 64.5t68 26.5z" />
    <glyph glyph-name="hungarumlaut" horiz-adv-x="470" 
d="M355 690l-187 -149l-40 27l151 166zM540 681l-188 -149l-39 27l151 166z" />
    <glyph glyph-name="ogonek" horiz-adv-x="340" 
d="M208 -16v-2q-23 -14 -46.5 -36t-27.5 -49q-5 -26 10 -36.5t38 -10.5q14 0 27 2.5t25 10.5l-16 -58q-16 -9 -33 -13t-34 -4q-18 0 -35.5 5t-30 15.5t-19 26t-3.5 35.5q3 19 13 36t23.5 31t30 26t32.5 21h46z" />
    <glyph glyph-name="caron" horiz-adv-x="472" 
d="M250 734l86 -96l117 96l52 -46l-184 -145l-136 145z" />
    <glyph glyph-name="Lslash" horiz-adv-x="385" 
d="M240 466l131 83l-14 -90l-131 -79l-46 -294h229l-14 -86h-323l51 322l-90 -58l14 91l90 54l54 345h94z" />
    <glyph glyph-name="dotlessi" horiz-adv-x="254" 
d="M172 0h-90l74 468h90z" />
    <glyph glyph-name="lslash" horiz-adv-x="255" 
d="M147 412l-89 -55l12 81l90 55l59 375h90l-49 -314l91 56l-13 -82l-91 -55l-75 -473h-90z" />
    <glyph glyph-name="minus" 
d="M80 299h512l-13 -86h-512z" />
    </font>
</defs>
</svg>
