<?xml version="1.0" standalone="no"?>
<!DOCTYPE svg PUBLIC "-//W3C//DTD SVG 1.1//EN" "http://www.w3.org/Graphics/SVG/1.1/DTD/svg11.dtd" >
<svg xmlns="http://www.w3.org/2000/svg" xmlns:xlink="http://www.w3.org/1999/xlink" version="1.1">
<metadata>
Created by FontForge 20170731 at Sat Jul 28 00:24:30 2001
 By Aleksey,,,
Copyright (c) 1987, 1991, 1993 Adobe Systems Incorporated.  All Rights Reserved.Futura is a registered trademark of Fundicion Tipografica Neufville S. A.
</metadata>
<defs>
<font id="FuturaLT-LightOblique" horiz-adv-x="620" >
  <font-face 
    font-family="Futura LT Light"
    font-weight="400"
    font-style="oblique"
    font-stretch="normal"
    units-per-em="1000"
    panose-1="2 0 5 4 3 0 0 9 0 3"
    ascent="800"
    descent="-200"
    x-height="462"
    cap-height="754"
    bbox="-175 -302 1246 971"
    underline-thickness="50"
    underline-position="-175"
    slope="-9"
    unicode-range="U+0020-2122"
  />
<missing-glyph horiz-adv-x="500" 
d="M442 8v496h-384v-496h384zM50 512h400v-512h-400v512z" />
    <glyph glyph-name=".notdef" horiz-adv-x="500" 
d="M442 8v496h-384v-496h384zM50 512h400v-512h-400v512z" />
    <glyph glyph-name=".null" horiz-adv-x="0" 
 />
    <glyph glyph-name="nonmarkingreturn" horiz-adv-x="310" 
 />
    <glyph glyph-name="space" unicode=" " horiz-adv-x="310" 
 />
    <glyph glyph-name="exclam" unicode="!" horiz-adv-x="320" 
d="M255 754h48l-96 -611h-48zM171 72q17 0 27.5 -12t7.5 -29t-17 -29t-31 -12t-27 12t-7 29t16.5 29t30.5 12z" />
    <glyph glyph-name="quotedbl" unicode="&#x22;" horiz-adv-x="278" 
d="M339 754l-49 -240h-27l28 240h48zM225 754l-49 -240h-27l28 240h48z" />
    <glyph glyph-name="numbersign" unicode="#" 
d="M328 438l-49 -162h136l49 162h-136zM572 228h-126l-73 -228h-46l72 228h-135l-69 -228h-48l69 228h-121l8 48h128l48 162h-123l8 48h130l66 212h50l-66 -212h136l66 212h50l-67 -212h110l-8 -48h-118l-51 -162h118z" />
    <glyph glyph-name="dollar" unicode="$" 
d="M363 384q-29 15 -57.5 31.5t-50.5 38t-33 50t-5 69.5q6 40 24.5 74t45.5 59t61.5 40t74.5 18l17 105h45l-17 -107q46 -6 82.5 -33.5t53.5 -70.5l-42 -30q-14 32 -39 57.5t-63 30.5l-47 -300q32 -18 63.5 -35t54.5 -39.5t34.5 -54t4.5 -77.5q-6 -41 -27 -77t-52 -65
t-68.5 -49t-76.5 -27l-18 -113h-45l17 111q-78 2 -128 45t-65 118l44 19q6 -29 19.5 -54t33.5 -43.5t46 -28.5t58 -8zM415 716q-27 0 -52.5 -12t-46 -32t-34 -45t-17.5 -52q-5 -29 4 -50t25 -36.5t36.5 -28t40.5 -23.5zM353 40q31 7 60 23.5t51.5 39.5t38 51t20.5 60
q5 30 -5 53t-28 40t-41 30.5t-45 24.5z" />
    <glyph glyph-name="percent" unicode="%" horiz-adv-x="664" 
d="M523 247q-22 0 -43.5 -8.5t-38.5 -22.5t-29 -34t-16 -42q-3 -22 3 -41t18.5 -33.5t31.5 -22.5t41 -8t43 8t38.5 22.5t29.5 33.5t15 41q4 22 -2 42t-18.5 34t-31.5 22.5t-41 8.5zM530 289q32 0 58 -11t43 -31t24.5 -47t2.5 -60q-5 -32 -21 -59t-40 -46.5t-53.5 -30.5
t-60.5 -11q-32 0 -57.5 11t-43 30.5t-25.5 46.5t-3 59q5 33 21.5 60t40 47t53 31t61.5 11zM690 754l-570 -771l-28 18l568 770zM294 719q-22 0 -43.5 -8.5t-39 -22.5t-29.5 -34t-15 -42t2.5 -41t18.5 -33.5t31.5 -22.5t40.5 -8t43.5 8t39 22.5t29.5 33.5t15 41t-2.5 42
t-18.5 34t-31.5 22.5t-40.5 8.5zM301 761q32 0 58 -11t43 -31t24.5 -47t2.5 -60q-5 -32 -21.5 -59t-40 -46.5t-53 -30.5t-60.5 -11q-32 0 -58 11t-43.5 30.5t-25 46.5t-2.5 59q5 33 21.5 60t40 47t53 31t61.5 11z" />
    <glyph glyph-name="ampersand" unicode="&#x26;" horiz-adv-x="642" 
d="M292 388q-30 -17 -61.5 -37t-58.5 -44t-46.5 -53t-25.5 -65q-5 -32 1 -61t22.5 -50.5t42 -34.5t58.5 -13t68.5 12.5t70.5 32t68.5 43t63.5 45.5l-149 257zM517 125q-36 -27 -73.5 -52t-75.5 -44.5t-76 -31.5t-75 -12q-42 0 -75.5 16t-55.5 43t-31.5 63t-3.5 77
q8 49 35.5 89t66 73t83.5 60.5t88 51.5q-11 18 -22 37t-19 39.5t-12 42.5t0 46q4 30 20.5 56.5t39.5 46t51.5 31t58.5 11.5q29 0 52.5 -11t38.5 -30t21.5 -44.5t1.5 -54.5q-5 -32 -20.5 -58t-39 -48.5t-52 -41.5t-58.5 -38l146 -254l112 105l34 -20l-124 -120l91 -153h-52z
M431 723q-21 0 -40 -9t-34 -23.5t-25.5 -33.5t-13.5 -39t0.5 -38t11 -35t16.5 -33t17 -33q22 16 46 30.5t44.5 31.5t35 38t19.5 50q3 19 -1.5 36t-14.5 30t-26 20.5t-35 7.5z" />
    <glyph glyph-name="quotesingle" unicode="'" horiz-adv-x="222" 
d="M254 754l-49 -240h-27l28 240h48z" />
    <glyph glyph-name="parenleft" unicode="(" horiz-adv-x="240" 
d="M293 754q-97 -220 -135 -459q-17 -110 -19.5 -222.5t11.5 -224.5l-41 -25q-11 49 -15 109t-2.5 123.5t7.5 125.5t14 114q8 53 21.5 116.5t32.5 129t42.5 127.5t51.5 112z" />
    <glyph glyph-name="parenright" unicode=")" horiz-adv-x="240" 
d="M227 780q12 -50 15.5 -112t1.5 -127.5t-8.5 -129t-14.5 -116.5q-8 -52 -22 -114t-32.5 -125.5t-41.5 -123.5t-50 -109l-33 25q48 112 82.5 224.5t51.5 222.5q19 119 21 234.5t-12 224.5z" />
    <glyph glyph-name="asterisk" unicode="*" horiz-adv-x="619" 
d="M404 754h49l-27 -150l150 50l7 -47l-151 -43l73 -119l-44 -29l-65 124l-106 -124l-35 28l110 120l-137 43l23 47l134 -50z" />
    <glyph glyph-name="plus" unicode="+" 
d="M367 512h48l-37 -232h232l-7 -48h-232l-37 -232h-48l37 232h-232l7 48h232z" />
    <glyph glyph-name="comma" unicode="," horiz-adv-x="310" 
d="M208 60l-119 -226l-29 11l105 229z" />
    <glyph glyph-name="hyphenminus" unicode="-" horiz-adv-x="190" 
d="M244 342l-7 -45h-190l7 45h190z" />
    <glyph glyph-name="period" unicode="." horiz-adv-x="310" 
d="M166 72q17 0 27.5 -12t7.5 -29t-17 -29t-31 -12t-27 12t-7 29t16.5 29t30.5 12z" />
    <glyph glyph-name="slash" unicode="/" horiz-adv-x="640" 
d="M733 807l-683 -949l-34 19l685 948z" />
    <glyph glyph-name="zero" unicode="0" 
d="M316 35q60 0 108.5 35t84 87.5t58 113t30.5 111.5q5 30 5 66q0 37 -6 74.5t-18.5 73t-33 63t-50.5 44t-70 16.5q-60 0 -109 -36t-84.5 -88t-57 -110t-28.5 -103q-8 -51 -5 -111.5t22 -113t56.5 -87.5t97.5 -35zM431 764q47 0 82.5 -17.5t61.5 -46.5t42.5 -67.5t24.5 -81
t8.5 -86.5t-5.5 -83t-20 -83t-35.5 -88t-50 -83.5t-64 -70.5t-77.5 -49t-90 -18t-84 18t-61.5 49t-41.5 70.5t-23.5 83.5t-7 88t6.5 83t20.5 83t36 86.5t50 81t63.5 67.5t76 46.5t88 17.5z" />
    <glyph glyph-name="one" unicode="1" 
d="M301 709l30 45h144l-119 -754h-48l112 709h-119z" />
    <glyph glyph-name="two" unicode="2" 
d="M541 45l-7 -45h-465l330 309q25 24 54 51.5t54.5 57.5t44 62.5t23.5 65.5q6 37 -3 68.5t-29.5 54.5t-51 36.5t-66.5 13.5q-39 0 -74 -13.5t-63 -37t-46 -56t-23 -71.5h-48q8 41 22.5 76t46.5 67q39 37 91 58.5t101 21.5q47 0 85.5 -17t64.5 -46.5t37 -70t4 -87.5
q-6 -38 -24.5 -72.5t-44 -66t-55.5 -60t-58 -55.5l-258 -244h358z" />
    <glyph glyph-name="three" unicode="3" 
d="M368 415q33 1 64 12.5t56 32t42 49t23 63.5q5 31 -3 57.5t-25 46.5t-42.5 31.5t-55.5 11.5q-66 0 -110.5 -39t-58.5 -104h-48q20 86 78.5 137t146.5 51q40 0 73.5 -15t56 -41t32.5 -61.5t3 -76.5q-9 -58 -46.5 -105t-93.5 -70q54 -22 79 -72.5t16 -110.5
q-8 -47 -31 -87.5t-57.5 -70.5t-78 -47t-90.5 -17q-42 0 -78 14t-60.5 40t-35.5 61.5t-4 79.5h48q-2 -33 6.5 -60.5t26 -47.5t43.5 -31t61 -11q36 0 69.5 14t61 38t46 55.5t24.5 66.5q6 37 -2.5 66.5t-28.5 50.5t-49.5 32.5t-64.5 11.5z" />
    <glyph glyph-name="four" unicode="4" 
d="M519 634h-6l-382 -440l-1 -6h319zM603 188l-7 -45h-106l-23 -143h-48l23 143h-407l1 6l549 631h6l-94 -592h106z" />
    <glyph glyph-name="five" unicode="5" 
d="M391 709l-95 -204q15 5 29.5 6.5t28.5 1.5q54 0 98 -20t73 -55t41 -81.5t4 -100.5q-9 -58 -38 -106.5t-71.5 -84t-95.5 -55.5t-110 -20q-69 0 -122.5 33t-80.5 92l47 18q23 -45 67 -71.5t98 -26.5q47 0 90.5 17t78 46.5t58 70t31.5 88.5q7 45 -4.5 83.5t-37 67t-63 44.5
t-82.5 16q-33 0 -61.5 -8.5t-58.5 -25.5l148 320h287l-7 -45h-252z" />
    <glyph glyph-name="six" unicode="6" 
d="M316 35q45 0 87.5 17t77 47t58.5 70t31 85t-4 85t-36.5 69.5t-62.5 47t-82 17.5t-88 -17.5t-77.5 -47t-58.5 -69.5t-31 -85t4 -85t36.5 -70t63 -47t82.5 -17zM495 735l-203 -235l2 -2q51 20 103 20q54 0 98.5 -21t74.5 -57.5t43.5 -84.5t4.5 -102q-8 -51 -36 -97.5
t-68 -83.5q-45 -42 -98 -62t-109 -20q-55 0 -100 20.5t-76 55.5t-44.5 83t-4.5 104q8 48 27.5 87.5t53.5 78.5l298 345z" />
    <glyph glyph-name="seven" unicode="7" 
d="M182 709l7 45h547l-660 -762l-33 29l597 688h-458z" />
    <glyph glyph-name="eight" unicode="8" 
d="M424 719q-32 0 -61.5 -12t-54 -33t-41 -49t-21.5 -59q-5 -32 2.5 -59.5t25.5 -48t44 -32.5t58 -12q31 0 61 12t54 32.5t41 48t22 59.5q5 31 -3 59t-26 49t-44 33t-57 12zM308 -10q-44 0 -81.5 15.5t-63 43t-37 65.5t-4.5 83q11 68 49.5 117.5t104.5 78.5q-45 24 -66 71
t-13 101q7 43 28.5 79.5t53 63t70.5 41.5t82 15t77.5 -15t57.5 -41.5t32.5 -63t2.5 -79.5q-8 -54 -44 -101t-89 -71q113 -59 92 -196q-7 -45 -30.5 -83t-58 -65.5t-77 -43t-86.5 -15.5zM368 369q-35 0 -68 -13t-60 -35.5t-45 -53t-24 -65.5t3 -65.5t29 -53t49 -35.5t64 -13
q34 0 67 13t60 35.5t45.5 53t24.5 65.5t-3 65.5t-29 53t-49.5 35.5t-63.5 13z" />
    <glyph glyph-name="nine" unicode="9" 
d="M425 719q-45 0 -88 -17t-77.5 -46.5t-59 -69.5t-31.5 -85t4.5 -84.5t37 -69.5t63 -47t82.5 -17t87.5 17t77 47t58 69.5t30.5 84.5t-3.5 85t-36 69.5t-62.5 46.5t-82 17zM244 21l205 235l-2 2q-26 -10 -51 -15t-53 -5q-54 0 -98.5 21t-74.5 57t-43.5 84t-4.5 102
q9 55 38 103t71.5 83t94.5 55.5t106 20.5q57 0 102.5 -20.5t75.5 -56.5t43 -84.5t4 -105.5q-8 -46 -28.5 -85t-52.5 -76l-297 -344z" />
    <glyph glyph-name="colon" unicode=":" horiz-adv-x="310" 
d="M230 472q17 0 27 -12t7 -29q-2 -17 -16 -29t-31 -12t-27 12t-8 29q3 17 17 29t31 12zM166 72q17 0 27.5 -12t7.5 -29t-17 -29t-31 -12t-27 12t-7 29t16.5 29t30.5 12z" />
    <glyph glyph-name="semicolon" unicode=";" horiz-adv-x="310" 
d="M236 472q17 0 27 -12t7 -29q-2 -17 -16 -29t-31 -12t-27 12t-8 29q3 17 17 29t31 12zM208 60l-119 -226l-29 11l105 229z" />
    <glyph glyph-name="less" unicode="&#x3c;" 
d="M572 41l-7 -46l-475 235l9 53l547 223l-7 -46l-492 -204z" />
    <glyph glyph-name="equal" unicode="=" 
d="M589 147h-512l8 48h512zM616 317h-512l8 48h512z" />
    <glyph glyph-name="greater" unicode="&#x3e;" 
d="M555 256l-428 204l7 46l477 -223l-9 -53l-549 -235l7 46z" />
    <glyph glyph-name="question" unicode="?" horiz-adv-x="491" 
d="M254 72q17 0 27.5 -12t7.5 -29t-17 -29t-31 -12t-27 12t-7 29t16.5 29t30.5 12zM450 303q-4 -34 -19.5 -63.5t-39.5 -51t-55.5 -34t-67.5 -12.5q-33 0 -60 11t-45 31t-26 47.5t-3 59.5q6 34 20.5 59.5t36.5 43.5t50 30t60 20q33 8 61 17t49.5 23.5t36.5 37.5t21 60
q4 28 -1.5 53t-20 43.5t-37 29.5t-52.5 11q-28 0 -53.5 -9.5t-46 -27t-33.5 -40.5t-17 -50q-2 -14 -3.5 -27t-0.5 -26h-46q0 16 0.5 31.5t3.5 32.5q6 36 25 65.5t47 51t62.5 33t69.5 11.5q40 0 71.5 -13.5t51 -37.5t27 -57t1.5 -72q-6 -42 -22.5 -72t-41.5 -50.5t-58 -34
t-72 -22.5q-24 -6 -47.5 -13t-42.5 -19t-32.5 -30.5t-17.5 -48.5q-8 -47 19 -77t76 -30q25 0 46.5 9.5t37.5 26t26.5 37t13.5 43.5h48z" />
    <glyph glyph-name="at" unicode="@" horiz-adv-x="800" 
d="M659 588h44l-154 -324q-6 -13 -11 -26t-4.5 -23t9 -16t29.5 -6q31 0 66.5 24t66.5 61t54 81.5t29 85.5q10 62 -7.5 113t-54 87.5t-87.5 56.5t-108 20q-69 0 -134.5 -28.5t-119 -76.5t-89.5 -111.5t-47 -132.5t6.5 -131t56.5 -108.5t95.5 -74t124.5 -27.5q84 0 162.5 34
t132.5 102h56q-27 -40 -65 -72.5t-84 -56t-99 -36.5t-110 -13q-80 0 -144.5 30.5t-107 83.5t-60.5 124t-5 152q13 80 54 150t100.5 122t132.5 82t149 30q72 0 131 -24t99 -67t57.5 -102.5t6.5 -129.5q-10 -60 -39.5 -113t-69.5 -92.5t-85 -62t-85 -22.5q-26 0 -44.5 12.5
t-22.5 36.5q-35 -26 -70.5 -37.5t-67.5 -11.5t-55 11.5t-37 31t-18.5 46.5t0.5 58q8 51 34 106t64.5 100.5t87.5 74.5t105 29q35 0 64 -17.5t46 -49.5zM368 193q24 1 48.5 12t46 28t38.5 38t26 41l71 147q6 13 3.5 31.5t-13 35.5t-29.5 28.5t-46 11.5q-39 0 -78.5 -26.5
t-72 -66t-55 -85.5t-28.5 -84q-3 -22 0.5 -42t14.5 -36t29.5 -25t44.5 -8z" />
    <glyph glyph-name="A" unicode="A" horiz-adv-x="641" 
d="M425 657l-206 -364h295zM194 248l-140 -248h-49l439 779l192 -779h-49l-62 248h-331z" />
    <glyph glyph-name="B" unicode="B" horiz-adv-x="565" 
d="M194 412h83q38 0 71 2.5t69 25.5t52.5 52.5t22.5 68.5q6 37 -4 70.5t-39 53.5q-26 18 -59 21t-66 3h-83zM81 0l119 754h151q43 0 81.5 -7t67.5 -37q30 -30 38 -70.5t1 -85.5q-8 -52 -35 -90t-77 -64q68 -14 102.5 -66t23.5 -124q-7 -46 -30.5 -86t-63.5 -70
q-46 -34 -90 -44t-95 -10h-193zM136 45h115q40 0 80.5 3t78.5 26t63 57.5t32 76.5t-7.5 79t-49.5 56q-32 17 -74.5 20.5t-80.5 3.5h-106z" />
    <glyph glyph-name="C" unicode="C" horiz-adv-x="739" 
d="M775 600q-18 27 -43.5 48.5t-56.5 37.5t-65 24.5t-69 8.5q-71 0 -137.5 -28t-121 -76t-91.5 -111t-48 -132q-11 -66 6.5 -126t57.5 -107q41 -45 100 -74.5t126 -29.5q33 0 70 8.5t73 23.5t69.5 36t58.5 47l-11 -66q-60 -45 -128 -69.5t-138 -24.5q-79 0 -145 30.5
t-112 83t-66.5 123t-7.5 149.5q12 80 54.5 151t105 123.5t139 83t156.5 30.5q69 0 130 -25.5t104 -72.5z" />
    <glyph glyph-name="D" unicode="D" horiz-adv-x="652" 
d="M223 45q74 0 139.5 19t128.5 72q56 48 91.5 110t46.5 130q11 72 -6.5 137t-63.5 114t-103 65.5t-128 16.5h-87l-105 -664h87zM200 754h136q41 0 78 -4t69.5 -14.5t62 -29t55.5 -47.5q51 -56 70 -129t6 -154q-13 -78 -53.5 -149.5t-106.5 -126.5q-36 -30 -71.5 -49.5
t-72.5 -30.5t-75.5 -15.5t-80.5 -4.5h-136z" />
    <glyph glyph-name="E" unicode="E" horiz-adv-x="507" 
d="M241 709l-43 -274h304l-7 -45h-304l-55 -345h312l-7 -45h-360l119 754h360l-7 -45h-312z" />
    <glyph glyph-name="F" unicode="F" horiz-adv-x="444" 
d="M241 709l-43 -274h249l-7 -45h-249l-62 -390h-48l119 754h304l-7 -45h-256z" />
    <glyph glyph-name="G" unicode="G" horiz-adv-x="824" 
d="M845 363q-5 -36 -13 -69t-21.5 -64.5t-34 -61t-49.5 -56.5q-64 -59 -145 -90.5t-161 -31.5q-78 0 -143.5 30.5t-110 83t-64.5 122.5t-8 148q13 81 55 152t104 124t138.5 83.5t157.5 30.5q103 0 177.5 -47.5t121.5 -128.5l-44 -31q-38 75 -105.5 118.5t-159.5 43.5
q-69 0 -135.5 -28t-121 -75t-92 -109t-47.5 -130q-11 -70 6 -132t56 -108.5t97 -74t129 -27.5q61 0 121.5 22.5t113.5 60.5q55 42 83 90t40 110h-270l7 45h318z" />
    <glyph glyph-name="H" unicode="H" horiz-adv-x="716" 
d="M656 434l50 320h48l-119 -754h-48l62 389h-458l-62 -389h-48l119 754h48l-50 -320h458z" />
    <glyph glyph-name="I" unicode="I" horiz-adv-x="210" 
d="M129 0h-48l119 754h48z" />
    <glyph glyph-name="J" unicode="J" horiz-adv-x="218" 
d="M256 754l-117 -740q-6 -35 -16 -66.5t-28.5 -55t-46.5 -37t-69 -13.5q-42 0 -71.5 22.5t-40.5 59.5l40 27q9 -27 31 -45.5t52 -18.5q28 0 46 12t29 30.5t17 41t9 43.5l117 740h48z" />
    <glyph glyph-name="K" unicode="K" horiz-adv-x="569" 
d="M606 754h64l-426 -363l330 -391h-63l-305 360l-23 -20l-54 -340h-48l119 754h48l-55 -352z" />
    <glyph glyph-name="L" unicode="L" horiz-adv-x="327" 
d="M136 45h192l-7 -45h-240l119 754h48z" />
    <glyph glyph-name="M" unicode="M" horiz-adv-x="897" 
d="M812 624h-2l-366 -649l-159 649h-2l-228 -624h-46l285 779l169 -686l386 686l39 -779h-46z" />
    <glyph glyph-name="N" unicode="N" horiz-adv-x="843" 
d="M758 -25l-526 673l-103 -648h-48l121 764l527 -668l104 658h48z" />
    <glyph glyph-name="O" unicode="O" horiz-adv-x="854" 
d="M541 719q-71 0 -137.5 -27.5t-120.5 -74t-91 -108.5t-48 -132t6 -132t56.5 -108.5t97.5 -74t129 -27.5q70 0 136.5 27.5t120.5 74t91.5 109t48.5 131.5q11 70 -6.5 132t-57 108.5t-97.5 74t-128 27.5zM548 764q79 0 145.5 -30.5t111.5 -83.5t65 -123.5t8 -149.5
q-13 -80 -55.5 -150t-104.5 -123t-138 -83.5t-155 -30.5q-80 0 -146 30.5t-111 83.5t-65 123t-7 150q12 79 54.5 149.5t104 123.5t137.5 83.5t156 30.5z" />
    <glyph glyph-name="P" unicode="P" horiz-adv-x="472" 
d="M280 403q37 0 71 7.5t67 33.5q29 23 45.5 51.5t21.5 61.5q6 35 -3 68t-34 54q-26 22 -59.5 26t-68.5 4h-79l-48 -306h87zM129 0h-48l119 754h133q45 0 85.5 -7t70.5 -37q30 -29 40.5 -69.5t3.5 -85.5q-7 -41 -29 -82t-58 -67q-39 -30 -84.5 -39t-90.5 -9h-85z" />
    <glyph glyph-name="Q" unicode="Q" horiz-adv-x="854" 
d="M687 80q-58 -42 -127 -66t-135 -24q-81 0 -147 30t-111 82.5t-64.5 123t-6.5 151.5q13 80 55 150.5t104 123t138 83t156 30.5q79 0 145 -30.5t111 -82.5t65.5 -122t7.5 -149q-13 -80 -51.5 -146.5t-101.5 -126.5l82 -107h-65zM696 143q53 49 87.5 104.5t45.5 123.5
q11 71 -5 134t-54.5 110.5t-97 75.5t-130.5 28q-70 0 -137 -27.5t-121.5 -74t-91.5 -108.5t-48 -132q-11 -71 6.5 -133t57 -108.5t98.5 -73.5t130 -27q57 0 114.5 22t107.5 57l-157 195h68z" />
    <glyph glyph-name="R" unicode="R" horiz-adv-x="488" 
d="M254 402q35 0 70 5t67 30q31 22 49 53.5t23 65.5q7 42 -6.5 80t-51.5 56q-28 14 -64 15.5t-69 1.5h-31l-48 -307h61zM454 0h-55l-189 357h-24l-57 -357h-48l119 754h94q46 0 89 -5t77 -33q36 -29 47.5 -71.5t3.5 -90.5q-8 -49 -30 -86.5t-55 -62t-74.5 -37t-87.5 -11.5z
" />
    <glyph glyph-name="S" unicode="S" horiz-adv-x="544" 
d="M530 630q-20 41 -52.5 65t-86.5 24q-30 0 -58 -11.5t-50 -31t-37 -45.5t-20 -56t4.5 -51.5t26.5 -38t39.5 -28.5t43.5 -23l132 -75q38 -27 54 -63t8 -87q-8 -47 -34 -87t-63.5 -69.5t-82.5 -46t-91 -16.5q-79 0 -130 44.5t-66 117.5l45 19q14 -60 53 -98t108 -38
q37 0 73 13.5t65 37.5t49.5 56.5t26.5 70.5q5 32 -6 55.5t-30.5 41t-44.5 31t-47 25.5l-125 72q-34 23 -49 56.5t-7 78.5q6 42 26 77t49.5 60.5t67.5 39.5t80 14q57 0 102.5 -28.5t64.5 -77.5z" />
    <glyph glyph-name="T" unicode="T" horiz-adv-x="450" 
d="M249 0h-48l112 709h-195l7 45h438l-7 -45h-195z" />
    <glyph glyph-name="U" unicode="U" horiz-adv-x="660" 
d="M657 754h48l-74 -470q-5 -29 -10 -56t-14 -52.5t-23 -49.5t-37 -48q-45 -44 -103.5 -66t-115.5 -22t-108 22t-83 66q-15 24 -21.5 48t-7.5 49.5t2.5 52.5t8.5 56l74 470h48l-72 -456q-4 -26 -7.5 -51.5t-3.5 -50.5q0 -24 4 -46.5t16 -41.5q23 -36 68.5 -54.5t89.5 -18.5
q22 0 46.5 4.5t48.5 14t46 23t39 31.5q35 38 48 88.5t21 101.5z" />
    <glyph glyph-name="V" unicode="V" horiz-adv-x="555" 
d="M294 110h2l325 644h48l-397 -779l-148 779h48z" />
    <glyph glyph-name="W" unicode="W" horiz-adv-x="1105" 
d="M289 106l390 686l174 -686l311 648h48l-377 -779l-178 697l-397 -697l-129 779h48z" />
    <glyph glyph-name="X" unicode="X" horiz-adv-x="494" 
d="M139 754h53l122 -324l224 324h53l-255 -369l146 -385h-52l-130 341l-236 -341h-52l267 385z" />
    <glyph glyph-name="Y" unicode="Y" horiz-adv-x="559" 
d="M123 754h53l162 -382l282 382h53l-319 -432l-51 -322h-48l51 322z" />
    <glyph glyph-name="Z" unicode="Z" horiz-adv-x="568" 
d="M550 45l-7 -45h-531l572 709h-416l7 45h500l-572 -709h447z" />
    <glyph glyph-name="bracketleft" unicode="[" horiz-adv-x="300" 
d="M89 -152h122l-8 -51h-170l151 957h170l-8 -51h-122z" />
    <glyph glyph-name="backslash" unicode="\" horiz-adv-x="640" 
d="M201 825l407 -806l-40 -19l-405 807z" />
    <glyph glyph-name="bracketright" unicode="]" horiz-adv-x="300" 
d="M298 703h-122l8 51h170l-151 -957h-170l8 51h122z" />
    <glyph glyph-name="asciicircum" unicode="^" 
d="M102 301l301 453h52l159 -453h-46l-146 408l-273 -408h-47z" />
    <glyph glyph-name="underscore" unicode="_" horiz-adv-x="500" 
d="M-20 -125l8 50h500l-8 -50h-500z" />
    <glyph glyph-name="grave" unicode="`" horiz-adv-x="313" 
d="M249 714l78 -147l-41 -17l-101 145z" />
    <glyph glyph-name="a" unicode="a" horiz-adv-x="560" 
d="M483 0h-45l13 83h-2q-16 -22 -38.5 -39.5t-48 -29.5t-52.5 -18t-52 -6q-53 0 -92 19t-63 52t-33 77.5t-1 95.5t30.5 94.5t57 75.5t79.5 50t97 18q54 0 97.5 -23t66.5 -67h2l12 80h45zM324 430q-40 0 -75.5 -16.5t-63.5 -44t-46.5 -63t-24.5 -72.5q-6 -40 0.5 -76.5
t26 -64.5t50.5 -44.5t73 -16.5q44 0 80.5 16.5t64.5 45t45.5 66t24.5 79.5q6 40 -1.5 75t-27.5 60.5t-52 40.5t-74 15z" />
    <glyph glyph-name="b" unicode="b" horiz-adv-x="560" 
d="M208 825h45l-70 -443h2q36 44 87 67t105 23q52 0 90.5 -18t63 -50t33.5 -75.5t1 -94.5t-31 -95.5t-58 -77.5t-80.5 -52t-97.5 -19q-26 0 -50.5 6t-46 18t-38.5 29.5t-26 39.5h-2l-13 -83h-45zM306 32q42 0 78.5 16.5t64.5 44.5t46.5 64.5t24.5 76.5q6 38 -1.5 73.5
t-27 62.5t-50 43.5t-70.5 16.5q-44 0 -80.5 -15.5t-64.5 -42t-46 -62.5t-24 -77t0.5 -77t25.5 -64t50 -44t74 -16z" />
    <glyph glyph-name="c" unicode="c" horiz-adv-x="477" 
d="M487 355q-27 36 -64 55.5t-87 19.5q-41 0 -78.5 -16t-67.5 -43.5t-50 -63.5t-26 -75t2.5 -75.5t29.5 -64t53 -44t73 -16.5q50 0 97.5 22.5t85.5 60.5l-9 -61q-41 -31 -86.5 -47.5t-92.5 -16.5q-51 0 -91.5 19t-67 51.5t-37 76.5t-2.5 95q8 50 33 94t62 76.5t83.5 51
t97.5 18.5q45 0 83.5 -14t68.5 -43z" />
    <glyph glyph-name="d" unicode="d" horiz-adv-x="560" 
d="M451 83h-2q-16 -22 -38.5 -39.5t-48 -29.5t-52.5 -18t-52 -6q-53 0 -92 19t-63 52t-33 77.5t-1 95.5t30.5 94.5t57 75.5t79.5 50t97 18q54 0 97.5 -23t66.5 -67h2l70 443h45l-131 -825h-45zM264 32q44 0 80.5 16.5t64.5 45t45.5 66t24.5 79.5q6 40 -1.5 75t-27.5 60.5
t-52 40.5t-74 15q-40 0 -75.5 -16.5t-63.5 -44t-46.5 -63t-24.5 -72.5q-6 -40 0.5 -76.5t26 -64.5t50.5 -44.5t73 -16.5z" />
    <glyph glyph-name="e" unicode="e" horiz-adv-x="510" 
d="M476 269q1 32 -9.5 61t-30 51.5t-47.5 35.5t-64 13q-35 0 -68.5 -13t-61.5 -35t-47.5 -51t-27.5 -62h356zM113 227q-8 -44 0 -80t29 -61.5t53 -39.5t72 -14q54 0 101 29t79 76l34 -22q-41 -60 -99.5 -92.5t-127.5 -32.5q-51 0 -89.5 19.5t-62.5 52.5t-32.5 77t-0.5 93
q7 48 30 91.5t57.5 76.5t79 52.5t95.5 19.5q52 0 90.5 -19.5t61.5 -53t31 -78t0 -94.5h-401z" />
    <glyph glyph-name="f" unicode="f" horiz-adv-x="240" 
d="M122 0h-45l67 420h-51l6 42h51l33 207q4 26 11.5 58t24.5 55q20 28 50 42t62 14q21 0 39 -7l-7 -41q-9 2 -17.5 4t-18.5 2q-29 0 -47 -13t-28.5 -33t-16 -44t-8.5 -46l-32 -198h116l-6 -42h-116z" />
    <glyph glyph-name="g" unicode="g" horiz-adv-x="567" 
d="M493 22q-8 -53 -22.5 -101.5t-54.5 -94.5q-39 -45 -91 -67t-107 -22q-45 0 -83.5 13t-65 38.5t-39.5 62t-8 84.5h45q-4 -36 6.5 -65t31.5 -49t51 -31t65 -11q44 0 85.5 16t73.5 53q33 40 47 84t22 91l9 57h-2q-38 -42 -90 -66t-105 -24q-50 0 -88.5 19.5t-62.5 53
t-33 77.5t-1 92q8 50 32 93.5t59.5 76t80.5 51.5t96 19q57 0 95.5 -23t64.5 -67h2l12 80h45zM331 430q-40 0 -75.5 -16.5t-63.5 -44t-46.5 -63t-24.5 -72.5q-6 -40 0.5 -76.5t26 -64.5t50.5 -44.5t73 -16.5q44 0 80.5 16.5t64.5 45t45.5 66t24.5 79.5q6 40 -1.5 75
t-27.5 60.5t-52 40.5t-74 15z" />
    <glyph glyph-name="h" unicode="h" horiz-adv-x="490" 
d="M253 825l-69 -435h2q26 38 65.5 60t84.5 22t72 -13.5t40.5 -38.5t14.5 -60.5t-6 -80.5l-44 -279h-45l44 279q5 31 6 58.5t-7 48t-28 32.5t-58 12q-44 0 -73 -18.5t-48 -47.5t-29.5 -65t-16.5 -71l-36 -228h-45l131 825h45z" />
    <glyph glyph-name="i" unicode="i" horiz-adv-x="234" 
d="M221 657q17 0 27 -12t8 -29q-3 -17 -17 -29t-31 -12t-27 12t-7 29q2 17 16 29t31 12zM139 0h-45l73 462h45z" />
    <glyph glyph-name="j" unicode="j" horiz-adv-x="234" 
d="M221 657q17 0 27 -12t8 -29q-3 -17 -17 -29t-31 -12t-27 12t-7 29q2 17 16 29t31 12zM96 -270h-45l116 732h45z" />
    <glyph glyph-name="k" unicode="k" horiz-adv-x="427" 
d="M164 266l221 196h58l-226 -200l218 -262h-59l-192 231l-30 -26l-32 -205h-45l131 825h45z" />
    <glyph glyph-name="l" unicode="l" horiz-adv-x="199" 
d="M122 0h-45l131 825h45z" />
    <glyph glyph-name="m" unicode="m" horiz-adv-x="725" 
d="M186 404h2q21 32 55.5 50t71.5 18q45 0 75 -21.5t41 -62.5q26 42 65 63t84 21t70.5 -14t37 -39t12 -58t-5.5 -71l-46 -290h-45l47 296q4 27 5 51t-6.5 42.5t-25.5 29.5t-51 11q-36 0 -61.5 -14.5t-42.5 -37.5t-26.5 -52.5t-14.5 -59.5l-42 -266h-45l45 285q4 27 5 53
t-6.5 46.5t-26 33t-52.5 12.5q-36 0 -61.5 -17t-42 -43t-26 -57t-13.5 -59l-40 -254h-45l73 462h45z" />
    <glyph glyph-name="n" unicode="n" horiz-adv-x="490" 
d="M184 390h2q26 38 65.5 60t84.5 22t72 -13.5t40.5 -38.5t14.5 -60.5t-6 -80.5l-44 -279h-45l44 279q5 31 6 58.5t-7 48t-28 32.5t-58 12q-44 0 -73 -18.5t-48 -47.5t-29.5 -65t-16.5 -71l-36 -228h-45l73 462h45z" />
    <glyph glyph-name="o" unicode="o" horiz-adv-x="547" 
d="M337 430q-41 0 -79 -16t-68 -43.5t-50.5 -64t-26.5 -76.5q-6 -39 3 -75t30.5 -63.5t54 -43.5t73.5 -16q42 0 81.5 15t70.5 42t52.5 63t27.5 78q7 43 -2.5 79.5t-32.5 63.5t-57 42t-77 15zM347 472q51 0 92.5 -18.5t69 -50.5t39.5 -76.5t4 -95.5t-34 -95.5t-64 -76.5
t-85.5 -50.5t-98.5 -18.5q-50 0 -90.5 19t-68 52t-39.5 76.5t-4 92.5q8 50 33.5 94t63.5 77t85 52t97 19z" />
    <glyph glyph-name="p" unicode="p" horiz-adv-x="560" 
d="M182 379h2q16 22 38.5 39.5t48 29.5t52 18t52.5 6q53 0 92 -19.5t63 -52.5t33 -77.5t1 -95.5t-30.5 -94t-57 -75t-79.5 -50t-97 -18q-54 0 -98 22.5t-65 67.5h-2l-56 -350h-45l116 732h45zM369 430q-44 0 -80.5 -17t-64.5 -46t-45.5 -66.5t-24.5 -79.5q-6 -41 1.5 -75.5
t27.5 -59.5t51.5 -39.5t73.5 -14.5q40 0 76 16t63.5 42.5t46.5 61.5t25 74q6 40 -0.5 76.5t-25.5 65t-50.5 45.5t-73.5 17z" />
    <glyph glyph-name="q" unicode="q" horiz-adv-x="560" 
d="M440 -270h-45l56 350h-2q-36 -45 -87.5 -67.5t-105.5 -22.5q-52 0 -91 18t-63 49.5t-33 75t-1 93.5q8 51 31 96t57.5 78t80 52.5t98.5 19.5q25 0 50 -6t46.5 -18t38.5 -29.5t26 -39.5h2l13 83h45zM327 430q-44 0 -80.5 -17t-64.5 -46t-45.5 -66.5t-24.5 -79.5
q-6 -41 1.5 -75.5t27.5 -59.5t51.5 -39.5t73.5 -14.5q40 0 76 16t63.5 42.5t46.5 61.5t25 74q6 40 -0.5 76.5t-25.5 65t-50.5 45.5t-73.5 17z" />
    <glyph glyph-name="r" unicode="r" horiz-adv-x="278" 
d="M186 402h2q18 32 46 51t65 19q14 0 25 -3t22 -8l-30 -40q-15 9 -31 9q-38 0 -61 -21t-36 -51t-19 -63.5t-10 -58.5l-37 -236h-45l73 462h45z" />
    <glyph glyph-name="s" unicode="s" horiz-adv-x="375" 
d="M331 378q-8 24 -27 38t-46 14q-15 0 -30 -5.5t-27.5 -15.5t-21.5 -23t-11 -28q-5 -28 9.5 -43.5t37.5 -26.5t50.5 -21t50.5 -25.5t35.5 -40.5t5.5 -67q-5 -32 -21 -58.5t-39 -45.5t-52 -29.5t-60 -10.5q-58 0 -96 32.5t-43 89.5l46 14q6 -42 30 -68t70 -26q22 0 42 8
t36.5 22t27.5 33t15 41q3 21 -2 36t-16.5 25t-26.5 17t-31 13q-22 9 -44.5 19t-39.5 24.5t-26.5 35t-4.5 49.5q4 26 18 47.5t33.5 37t44 24t49.5 8.5q35 0 65.5 -21t40.5 -53z" />
    <glyph glyph-name="t" unicode="t" horiz-adv-x="209" 
d="M127 0h-45l67 420h-51l6 42h51l26 165h45l-26 -165h81l-6 -42h-81z" />
    <glyph glyph-name="u" unicode="u" horiz-adv-x="472" 
d="M475 462l-44 -277q-5 -35 -14 -69.5t-35 -63.5q-29 -32 -69 -47t-79 -15t-73.5 15t-54.5 47q-17 29 -14.5 63.5t7.5 69.5l44 277h45l-41 -261q-5 -33 -6.5 -64t7 -54t30 -37t63.5 -14t68 14t42 37t24.5 54t13.5 64l41 261h45z" />
    <glyph glyph-name="v" unicode="v" horiz-adv-x="433" 
d="M231 81l224 381h46l-288 -487l-135 487h46z" />
    <glyph glyph-name="w" unicode="w" horiz-adv-x="752" 
d="M227 83l227 404l100 -404l220 379h46l-286 -487l-100 399l-225 -399l-131 487h46z" />
    <glyph glyph-name="x" unicode="x" horiz-adv-x="443" 
d="M93 462h54l118 -187l177 187h54l-206 -218l149 -244h-53l-131 212l-198 -212h-53l227 244z" />
    <glyph glyph-name="y" unicode="y" horiz-adv-x="460" 
d="M66 462h47l131 -418l243 418h46l-426 -732h-46l153 262z" />
    <glyph glyph-name="z" unicode="z" horiz-adv-x="480" 
d="M480 42l-7 -42h-470l445 420h-317l6 42h411l-443 -420h375z" />
    <glyph glyph-name="braceleft" unicode="{" horiz-adv-x="300" 
d="M88 299q19 12 34.5 23.5t27 24.5t19 29t11.5 38l27 176q7 43 18.5 73.5t31 50.5t49 29.5t72.5 10.5l-7 -46q-17 0 -34.5 -2.5t-32.5 -11t-27 -24t-16 -42.5l-29 -186q-6 -38 -15 -63.5t-21 -43.5t-27.5 -31t-35.5 -25l-1 -5q16 -12 27.5 -25t18 -31.5t7 -45.5t-5.5 -66
l-30 -185q-4 -27 2.5 -42.5t19.5 -24t29.5 -11t33.5 -2.5l-7 -44q-43 1 -69.5 11t-39.5 29.5t-15 49.5t5 73l28 176q3 22 1 38.5t-9.5 30.5t-19.5 26t-27 24z" />
    <glyph glyph-name="bar" unicode="|" horiz-adv-x="320" 
d="M260 786h48l-158 -1000h-48z" />
    <glyph glyph-name="braceright" unicode="}" horiz-adv-x="300" 
d="M299 255q-19 -12 -34.5 -24t-27 -26t-19 -30.5t-10.5 -38.5l-28 -176q-7 -43 -18.5 -73t-31 -49.5t-49 -29.5t-72.5 -11l7 44q16 0 34 2.5t33 11t26.5 24t15.5 42.5l30 185q6 39 15 66t21 45.5t27.5 31.5t35.5 25l1 5q-16 12 -27.5 25t-18 31t-7 43.5t5.5 63.5l29 186
q4 27 -2 42.5t-19 24t-30 11t-33 2.5l7 46q43 -1 69.5 -10.5t40 -29.5t15 -50.5t-5.5 -73.5l-27 -176q-4 -22 -1.5 -38t9.5 -29t19 -24.5t27 -23.5z" />
    <glyph glyph-name="asciitilde" unicode="~" 
d="M251 314q27 0 55.5 -11t55.5 -25q28 -14 52.5 -27t44.5 -13q34 0 60 23.5t49 56.5l45 -23q-16 -20 -34.5 -39.5t-38.5 -35t-43 -25t-48 -9.5q-27 0 -52.5 12t-50.5 26q-26 14 -51.5 26t-52.5 12q-34 0 -60 -22t-51 -52l-44 23q16 16 33.5 34t37.5 33.5t43 25.5t50 10z
" />
    <glyph glyph-name="Euro" 
d="M719 685l-23 -52q-17 24 -35 40t-39.5 26.5t-48 15t-60.5 4.5q-104 0 -183 -70q-84 -74 -120 -207h399l-21 -45h-389l-4 -25q-2 -13 -3 -25t-3 -25h364l-21 -45h-343q3 -107 57 -172q58 -70 164 -70q74 0 122 19q34 13 81 51l-10 -58q-25 -17 -47.5 -28.5t-42.5 -17.5
q-41 -11 -109 -11q-127 0 -197 82q-66 78 -67 205h-88l21 45h68q2 14 3.5 27t3.5 27l3 21h-80l21 45h70q39 140 131 227q101 95 232 95q125 0 194 -79z" />
    <glyph glyph-name="Euro" unicode="&#x20ac;" 
d="M719 685l-23 -52q-17 24 -35 40t-39.5 26.5t-48 15t-60.5 4.5q-104 0 -183 -70q-84 -74 -120 -207h399l-21 -45h-389l-4 -25q-2 -13 -3 -25t-3 -25h364l-21 -45h-343q3 -107 57 -172q58 -70 164 -70q74 0 122 19q34 13 81 51l-10 -58q-25 -17 -47.5 -28.5t-42.5 -17.5
q-41 -11 -109 -11q-127 0 -197 82q-66 78 -67 205h-88l21 45h68q2 14 3.5 27t3.5 27l3 21h-80l21 45h70q39 140 131 227q101 95 232 95q125 0 194 -79z" />
    <glyph glyph-name="Zcaron" horiz-adv-x="568" 
d="M425 816l-121 107l43 28l88 -76l114 76l31 -28zM550 45l-7 -45h-531l572 709h-416l7 45h500l-572 -709h447z" />
    <glyph glyph-name="Zcaron" unicode="&#x17d;" horiz-adv-x="568" 
d="M425 816l-121 107l43 28l88 -76l114 76l31 -28zM550 45l-7 -45h-531l572 709h-416l7 45h500l-572 -709h447z" />
    <glyph glyph-name="zcaron" horiz-adv-x="480" 
d="M354 559l-122 107l43 28l88 -76l114 76l31 -28zM480 42l-7 -42h-470l445 420h-317l6 42h411l-443 -420h375z" />
    <glyph glyph-name="zcaron" unicode="&#x17e;" horiz-adv-x="480" 
d="M354 559l-122 107l43 28l88 -76l114 76l31 -28zM480 42l-7 -42h-470l445 420h-317l6 42h411l-443 -420h375z" />
    <glyph glyph-name="nonbreakingspace" unicode="&#xa0;" horiz-adv-x="310" 
 />
    <glyph glyph-name="exclamdown" unicode="&#xa1;" horiz-adv-x="320" 
d="M138 -290h-48l97 611h48zM235 472q17 0 27 -12t7 -29q-2 -17 -16 -29t-31 -12t-27 12t-8 29q3 17 17 29t31 12z" />
    <glyph glyph-name="cent" unicode="&#xa2;" 
d="M408 582q-37 -5 -70 -23t-59 -45t-43 -60.5t-23 -69.5t1 -69.5t24.5 -60.5t44.5 -45t62 -23zM586 508q-23 32 -57 52.5t-76 23.5l-63 -399q45 4 87.5 26.5t74.5 56.5h2l-9 -61q-36 -27 -77.5 -44.5t-83.5 -19.5l-21 -128h-45l21 129q-44 4 -79 24.5t-58 52.5t-32.5 72.5
t-2.5 85.5q7 47 29 89.5t54.5 75.5t74.5 54.5t90 26.5l19 117h45l-19 -116q40 -2 75 -17t61 -41z" />
    <glyph glyph-name="sterling" unicode="&#xa3;" 
d="M69 29q28 28 67.5 47t76.5 18q29 22 53 52.5t30 66.5l1 29h-124l7 45h112l-59 138q-18 38 -27.5 71.5t-2.5 78.5q6 41 28 76t54 60t70.5 39t78.5 14q42 0 75 -16t54.5 -43t30 -63.5t0.5 -76.5h-48q6 33 -0.5 61t-23 49t-42 32.5t-59.5 11.5q-30 0 -59 -12t-52 -32.5
t-39 -47.5t-21 -57q-5 -32 4.5 -61t23.5 -56q18 -41 36.5 -81t29.5 -85h136l-7 -45h-127l-3 -33q-5 -35 -26.5 -68t-50.5 -58l10 -3q13 -5 31.5 -12.5t38 -14.5t38 -12.5t31.5 -5.5q36 0 67 26t52 56l37 -24q-14 -19 -31.5 -37.5t-38 -33t-43 -23.5t-45.5 -9
q-26 0 -53.5 9.5t-54.5 20.5q-26 11 -51 20t-46 9q-33 0 -62.5 -18t-56.5 -41z" />
    <glyph glyph-name="currency" unicode="&#xa4;" 
d="M390 502q-44 -1 -84.5 -16.5t-73 -42.5t-54 -63.5t-27.5 -79.5q-6 -41 4.5 -77.5t34.5 -64t59 -44t77 -16.5t82 16.5t72.5 44t54.5 64t30 77.5q7 43 -3 79.5t-34 63.5t-59.5 42.5t-78.5 16.5zM189 534l35 -42q45 29 85 43.5t88 14.5t83.5 -14.5t71.5 -43.5l49 42l30 -36
l-46 -40q21 -43 28 -79t0 -79q-8 -43 -26 -79t-53 -79l34 -40l-42 -36l-35 42q-45 -29 -85 -43.5t-88 -14.5t-83.5 14.5t-71.5 43.5l-49 -42l-30 36l46 40q-20 43 -27.5 79t0.5 79q7 43 25 79t53 79l-34 40z" />
    <glyph glyph-name="yen" unicode="&#xa5;" 
d="M306 397h-161l7 45h134l-132 312h58l158 -377l276 377h58l-230 -312h134l-7 -45h-160l-56 -75h204l-7 -45h-204l-44 -277h-48l44 277h-204l7 45h204z" />
    <glyph glyph-name="brokenbar" unicode="&#xa6;" horiz-adv-x="320" 
d="M241 661h48l-40 -250h-48zM161 161h48l-39 -250h-48z" />
    <glyph glyph-name="section" unicode="&#xa7;" 
d="M190 -11l-2 -13q-9 -61 12.5 -92.5t85.5 -31.5q56 0 97 30t50 87q5 32 -4.5 53.5t-28.5 36.5t-43.5 24.5t-48.5 18.5q-33 12 -60.5 26t-46.5 34.5t-27.5 50t-1.5 71.5q9 59 45.5 104t94.5 68q-45 24 -63 58.5t-9 91.5q6 39 24.5 68.5t45.5 49.5t60.5 30t69.5 10
q47 0 76 -12.5t44 -35.5t18 -57t0 -76h-48q10 63 -12.5 99.5t-89.5 36.5q-54 0 -93 -32t-48 -87q-6 -35 4 -56.5t29 -35.5t44.5 -23.5t52.5 -18.5q26 -9 51 -21.5t43 -32.5t25.5 -51t0.5 -77q-9 -58 -47 -100t-92 -67q49 -20 70 -59.5t12 -95.5q-6 -40 -25 -69t-46 -48
t-61 -28.5t-71 -9.5q-91 0 -121 43.5t-15 128.5l1 10h48zM335 155q27 0 53 10.5t47 28.5t35.5 42t18.5 51t-2.5 51.5t-22 42.5t-38 29t-49.5 11t-53.5 -11t-48 -29t-36.5 -42.5t-19 -51.5t3 -51t23 -42t39 -28.5t50 -10.5z" />
    <glyph glyph-name="dieresis" unicode="&#xa8;" horiz-adv-x="421" 
d="M411 674q17 0 26.5 -11.5t6.5 -28.5q-2 -17 -15.5 -28.5t-30.5 -11.5t-26.5 11.5t-7.5 28.5q3 17 16.5 28.5t30.5 11.5zM224 674q17 0 26.5 -11.5t6.5 -28.5q-2 -17 -15.5 -28.5t-30.5 -11.5t-26.5 11.5t-7.5 28.5q3 17 16.5 28.5t30.5 11.5z" />
    <glyph glyph-name="copyright" unicode="&#xa9;" horiz-adv-x="800" 
d="M646 308q-9 -35 -29.5 -62.5t-48 -47t-60 -30t-65.5 -10.5q-48 0 -85 17t-60.5 47t-32.5 71t-1 88q8 48 29 88.5t53 70.5t74 46.5t91 16.5q35 0 64 -9.5t50 -28.5t32.5 -46t11.5 -62h-48q-1 46 -35.5 72t-81.5 26q-38 0 -70.5 -13.5t-57.5 -37t-41 -55t-22 -67.5
q-6 -35 1 -67t25 -56t46 -38.5t66 -14.5q23 0 46 7t43 20t35.5 32t22.5 43h48zM407 38q70 0 136 26.5t119 72.5t89.5 108t47.5 133q11 70 -5.5 132t-55 107.5t-96.5 72t-128 26.5q-71 0 -137 -26.5t-119 -72t-89.5 -107.5t-47.5 -132q-11 -71 5.5 -133t55.5 -108t96.5 -72.5
t128.5 -26.5zM399 -10q-80 0 -146 30.5t-110 83t-63.5 123.5t-6.5 151t54.5 150t102.5 122.5t136.5 83t155.5 30.5t145.5 -30.5t109.5 -83t63.5 -122.5t6.5 -150t-54.5 -151t-102.5 -123.5t-136 -83t-155 -30.5z" />
    <glyph glyph-name="ordfeminine" unicode="&#xaa;" horiz-adv-x="336" 
d="M391 481h-29l8 50h-2q-21 -27 -55.5 -41.5t-67.5 -14.5q-34 0 -59.5 11.5t-41.5 31t-22.5 46.5t-1.5 57t19.5 56.5t36.5 45.5t51 30t63 11q35 0 63.5 -14t42.5 -40h2l8 48h29zM279 730q-24 0 -45 -9.5t-37.5 -24.5t-28 -35t-14.5 -41q-3 -22 1.5 -42t16 -35.5t30.5 -24.5
t44 -9q27 0 50 9t40.5 25t28.5 36.5t15 43.5q7 45 -21 76t-80 31z" />
    <glyph glyph-name="guillemotleft" unicode="&#xab;" horiz-adv-x="397" 
d="M238 178l-33 -27l-119 169l172 169l25 -27l-143 -142zM358 178l-33 -27l-119 169l172 169l25 -27l-143 -142z" />
    <glyph glyph-name="logicalnot" unicode="&#xac;" 
d="M568 317h-464l8 48h512l-42 -266h-48z" />
    <glyph glyph-name="hyphen" unicode="&#xad;" horiz-adv-x="190" 
d="M244 342l-7 -45h-190l7 45h190z" />
    <glyph glyph-name="hyphen" unicode="&#x2010;" horiz-adv-x="190" 
d="M244 342l-7 -45h-190l7 45h190z" />
    <glyph glyph-name="registered" unicode="&#xae;" horiz-adv-x="800" 
d="M455 401q22 0 49.5 -0.5t51.5 5t42 20t23 44.5q3 21 -5.5 33t-24 19t-35.5 9t-39 2h-125l-20 -132h83zM615 158h-62l-90 195h-99l-31 -195h-48l67 423h185q42 0 69.5 -7.5t42.5 -22t19.5 -35.5t0.5 -47q-5 -31 -18.5 -53t-33.5 -35.5t-45.5 -20t-53.5 -7.5zM407 38
q70 0 136 26.5t119 72.5t89.5 108t47.5 133q11 70 -5.5 132t-55 107.5t-96.5 72t-128 26.5q-71 0 -137 -26.5t-119 -72t-89.5 -107.5t-47.5 -132q-11 -71 5.5 -133t55.5 -108t96.5 -72.5t128.5 -26.5zM399 -10q-80 0 -146 30.5t-110 83t-63.5 123.5t-6.5 151t54.5 150
t102.5 122.5t136.5 83t155.5 30.5t145.5 -30.5t109.5 -83t63.5 -122.5t6.5 -150t-54.5 -151t-102.5 -123.5t-136 -83t-155 -30.5z" />
    <glyph glyph-name="macron" unicode="&#xaf;" horiz-adv-x="456" 
d="M487 674l-7 -45h-305l7 45h305z" />
    <glyph glyph-name="degree" unicode="&#xb0;" horiz-adv-x="400" 
d="M313 722q-23 0 -43.5 -8.5t-37 -23t-28 -34.5t-15.5 -42q-7 -46 19 -77t72 -31q22 0 43.5 8.5t38.5 23t28.5 34t14.5 42.5q4 22 -1.5 42t-18 34.5t-31 23t-41.5 8.5zM447 614q-5 -31 -21 -58.5t-40 -47.5t-53 -32t-60 -12t-56.5 12t-42.5 32t-24.5 47.5t-2.5 58.5
q4 31 20.5 58t40 47.5t53 32.5t60.5 12t56 -12t42.5 -32.5t25 -47.5t2.5 -58z" />
    <glyph glyph-name="plusminus" unicode="&#xb1;" 
d="M62 48h512l-8 -48h-512zM367 512h48l-30 -192h232l-8 -48h-232l-30 -192h-48l30 192h-232l8 48h232z" />
    <glyph glyph-name="twosuperior" unicode="&#xb2;" horiz-adv-x="372" 
d="M390 340l-6 -34h-302l212 185q16 14 34 31t34 35t27.5 37.5t14.5 39.5q4 22 -2 39.5t-19 30t-32.5 19.5t-43.5 7q-51 0 -86 -26.5t-43 -72.5h-34q5 24 14 45t30 40q25 23 58.5 35.5t65.5 12.5q30 0 55.5 -10t42.5 -28t24.5 -42t3.5 -52q-4 -23 -15.5 -44t-27 -40.5
t-34 -37t-35.5 -32.5l-158 -138h222z" />
    <glyph glyph-name="threesuperior" unicode="&#xb3;" horiz-adv-x="372" 
d="M272 559q44 0 76.5 24t39.5 66q6 37 -18 59t-64 22q-42 0 -69.5 -20t-35.5 -58h-34q13 51 50.5 81.5t94.5 30.5q26 0 48 -9t37 -24.5t22 -37t3 -45.5q-6 -35 -30 -63t-61 -42q35 -13 52 -43.5t12 -66.5q-5 -28 -19.5 -52.5t-36.5 -42.5t-50 -28t-59 -10q-27 0 -50.5 8.5
t-40 24t-24 37t-3.5 47.5h34q-2 -39 20.5 -61t67.5 -22q47 0 83 27.5t43 69.5q7 44 -20.5 69t-73.5 25z" />
    <glyph glyph-name="acute" unicode="&#xb4;" horiz-adv-x="313" 
d="M347 695l-147 -145l-35 17l124 147z" />
    <glyph glyph-name="mu" unicode="&#xb5;" horiz-adv-x="472" 
d="M27 -270l116 732h45l-36 -228q-5 -32 -6 -67.5t7.5 -65.5t29 -49.5t58.5 -19.5q42 0 68 14t42 37t24.5 54t13.5 64l41 261h45l-44 -277q-5 -35 -14 -69.5t-35 -63.5q-29 -32 -69 -47t-79 -15q-15 0 -32 5t-32 15.5t-26.5 26t-15.5 35.5h-2l-54 -342h-45z" />
    <glyph glyph-name="paragraph" unicode="&#xb6;" 
d="M341 370q-39 0 -68 15t-48 41t-25.5 60.5t-0.5 73.5q14 94 70.5 144t162.5 50h197l-7 -45h-40l-140 -887h-48l140 887h-92l-140 -887h-48z" />
    <glyph glyph-name="periodcentered" unicode="&#xb7;" horiz-adv-x="310" 
d="M202 297q17 0 27 -12t8 -29q-3 -17 -17 -29t-31 -12t-27 12t-7 29q2 17 16 29t31 12z" />
    <glyph glyph-name="periodcentered" unicode="&#x22c5;" horiz-adv-x="310" 
d="M202 297q17 0 27 -12t8 -29q-3 -17 -17 -29t-31 -12t-27 12t-7 29q2 17 16 29t31 12z" />
    <glyph glyph-name="periodcentered" unicode="&#x2219;" horiz-adv-x="310" 
d="M202 297q17 0 27 -12t8 -29q-3 -17 -17 -29t-31 -12t-27 12t-7 29q2 17 16 29t31 12z" />
    <glyph glyph-name="cedilla" unicode="&#xb8;" horiz-adv-x="299" 
d="M84 -183l-35 19l116 144l52 -22z" />
    <glyph glyph-name="onesuperior" unicode="&#xb9;" horiz-adv-x="372" 
d="M248 720l20 34h95l-71 -448h-34l66 414h-76z" />
    <glyph glyph-name="ordmasculine" unicode="&#xba;" horiz-adv-x="328" 
d="M277 730q-24 0 -47 -9t-41 -24.5t-30 -36t-15 -42.5q-3 -21 2.5 -41t18.5 -35t33 -24t44 -9q25 0 48.5 8.5t42 23t31 34.5t16.5 43q4 24 -2 44.5t-20 35.5t-35 23.5t-46 8.5zM284 764q33 0 60 -11t45.5 -30.5t26.5 -45.5t3 -57t-21.5 -57.5t-41 -46t-55 -30.5t-63.5 -11
q-32 0 -58.5 11.5t-44.5 31t-26.5 45.5t-3.5 56t21.5 56.5t40.5 46t54 31t63 11.5z" />
    <glyph glyph-name="guillemotright" unicode="&#xbb;" horiz-adv-x="397" 
d="M359 320l-99 142l33 27l120 -169l-173 -169l-25 27zM239 320l-99 142l33 27l120 -169l-173 -169l-25 27z" />
    <glyph glyph-name="onequarter" unicode="&#xbc;" horiz-adv-x="930" 
d="M800 754l-569 -771l-29 18l569 771zM788 367h-5l-225 -247l-1 -4h191zM848 116l-5 -34h-66l-13 -82h-34l13 82h-259l1 4l347 382h6l-56 -352h66zM214 720l20 34h95l-71 -448h-34l66 414h-76z" />
    <glyph glyph-name="onehalf" unicode="&#xbd;" horiz-adv-x="930" 
d="M756 754l-569 -771l-29 18l569 771zM833 34l-5 -34h-302l211 185q16 14 34.5 31t34.5 35t27.5 37.5t14.5 39.5q3 22 -3 39.5t-19 30t-32.5 19.5t-43.5 7q-51 0 -86 -26.5t-43 -72.5h-34q5 24 14.5 45t30.5 40q25 23 58.5 35.5t65.5 12.5q30 0 55.5 -10t42.5 -28t24.5 -42
t3.5 -52q-4 -23 -15.5 -44t-27 -40.5t-34 -37t-36.5 -32.5l-158 -138h222zM214 720l20 34h95l-71 -448h-34l66 414h-76z" />
    <glyph glyph-name="threequarters" unicode="&#xbe;" horiz-adv-x="930" 
d="M853 754l-569 -771l-29 18l569 771zM286 559q44 0 76.5 24t39.5 66q6 37 -18 59t-64 22q-42 0 -69.5 -20t-35.5 -58h-34q13 51 50.5 81.5t94.5 30.5q26 0 48 -9t37 -24.5t22 -37t3 -45.5q-6 -35 -30 -63t-61 -42q35 -13 52 -43.5t12 -66.5q-5 -28 -19.5 -52.5
t-36.5 -42.5t-50 -28t-59 -10q-27 0 -50.5 8.5t-40 24t-24 37t-3.5 47.5h34q-2 -39 20.5 -61t67.5 -22q47 0 83 27.5t43 69.5q7 44 -20.5 69t-73.5 25zM828 367h-5l-225 -247l-1 -4h191zM888 116l-5 -34h-66l-13 -82h-34l13 82h-259l1 4l347 382h6l-56 -352h66z" />
    <glyph glyph-name="questiondown" unicode="&#xbf;" horiz-adv-x="491" 
d="M323 472q17 0 27 -12t7 -29q-2 -17 -16 -29t-31 -12t-27 12t-8 29q3 17 17 29t31 12zM114 159q4 34 19.5 63.5t39.5 51t55.5 34t67.5 12.5q33 0 60 -11t45 -31t26 -47.5t3 -59.5q-5 -35 -20 -60t-37 -43t-50 -30t-60 -20q-33 -8 -61 -17t-49.5 -23.5t-36.5 -37.5t-21 -60
q-5 -28 1 -53t20.5 -43.5t37 -29.5t52.5 -11q28 0 53.5 9.5t46 27t33.5 40.5t17 50q2 14 3.5 27t0.5 26h46q0 -16 -0.5 -31.5t-2.5 -32.5q-6 -36 -25.5 -65.5t-47.5 -51t-62.5 -33t-69.5 -11.5q-41 0 -72 13.5t-50.5 37.5t-27 57t-1.5 72q7 42 23.5 72t41.5 50.5t57.5 34
t71.5 22.5q25 6 48 13t42 19t32.5 30.5t18.5 48.5q7 47 -19.5 77t-75.5 30q-26 0 -47 -9.5t-37.5 -26t-27 -37.5t-13.5 -43h-48z" />
    <glyph glyph-name="Agrave" unicode="&#xc0;" horiz-adv-x="641" 
d="M454 971l78 -147l-41 -17l-101 145zM425 657l-206 -364h295zM194 248l-140 -248h-49l439 779l192 -779h-49l-62 248h-331z" />
    <glyph glyph-name="Aacute" unicode="&#xc1;" horiz-adv-x="641" 
d="M552 952l-147 -145l-35 17l124 147zM425 657l-206 -364h295zM194 248l-140 -248h-49l439 779l192 -779h-49l-62 248h-331z" />
    <glyph glyph-name="Acircumflex" unicode="&#xc2;" horiz-adv-x="641" 
d="M472 951l121 -106l-43 -29l-88 77l-114 -77l-31 29zM425 657l-206 -364h295zM194 248l-140 -248h-49l439 779l192 -779h-49l-62 248h-331z" />
    <glyph glyph-name="Atilde" unicode="&#xc3;" horiz-adv-x="641" 
d="M313 865q14 24 37 44t51 20q18 0 35 -6t32 -13q17 -7 31.5 -13.5t28.5 -6.5q18 0 32 12.5t22 28.5l26 -22q-11 -27 -37 -46t-54 -19q-13 0 -29 6t-33 14t-33.5 14t-31.5 6q-19 0 -30.5 -12.5t-19.5 -28.5zM425 657l-206 -364h295zM194 248l-140 -248h-49l439 779
l192 -779h-49l-62 248h-331z" />
    <glyph glyph-name="Adieresis" unicode="&#xc4;" horiz-adv-x="641" 
d="M561 931q17 0 27 -11.5t7 -28.5q-2 -17 -15.5 -28.5t-30.5 -11.5t-26.5 11.5t-7.5 28.5q3 17 16 28.5t30 11.5zM374 931q17 0 27 -11.5t7 -28.5q-2 -17 -15.5 -28.5t-30.5 -11.5t-26.5 11.5t-7.5 28.5q3 17 16 28.5t30 11.5zM425 657l-206 -364h295zM194 248l-140 -248
h-49l439 779l192 -779h-49l-62 248h-331z" />
    <glyph glyph-name="Aring" unicode="&#xc5;" horiz-adv-x="641" 
d="M468 931q-20 0 -35.5 -13.5t-18.5 -33.5t8.5 -33.5t31.5 -13.5t35.5 13.5t18.5 33.5t-8.5 33.5t-31.5 13.5zM475 971q36 0 57.5 -25.5t15.5 -61.5q-3 -18 -12.5 -34t-23 -27.5t-30.5 -18.5t-35 -7q-36 0 -57.5 25.5t-15.5 61.5q3 18 12.5 34t23 27.5t30.5 18.5t35 7z
M425 657l-206 -364h295zM194 248l-140 -248h-49l439 779l192 -779h-49l-62 248h-331z" />
    <glyph glyph-name="AE" unicode="&#xc6;" horiz-adv-x="942" 
d="M420 648l-198 -355h285zM196 248l-137 -248h-54l423 754h329l10 -45h-311l69 -274h303l12 -45h-303l85 -345h312l11 -45h-365l-61 248h-323z" />
    <glyph glyph-name="Ccedilla" unicode="&#xc7;" horiz-adv-x="739" 
d="M304 -183l-35 19l116 144l52 -22zM775 600q-18 27 -43.5 48.5t-56.5 37.5t-65 24.5t-69 8.5q-71 0 -137.5 -28t-121 -76t-91.5 -111t-48 -132q-11 -66 6.5 -126t57.5 -107q41 -45 100 -74.5t126 -29.5q33 0 70 8.5t73 23.5t69.5 36t58.5 47l-11 -66q-60 -45 -128 -69.5
t-138 -24.5q-79 0 -145 30.5t-112 83t-66.5 123t-7.5 149.5q12 80 54.5 151t105 123.5t139 83t156.5 30.5q69 0 130 -25.5t104 -72.5z" />
    <glyph glyph-name="Egrave" unicode="&#xc8;" horiz-adv-x="507" 
d="M387 971l78 -147l-41 -17l-101 145zM241 709l-43 -274h304l-7 -45h-304l-55 -345h312l-7 -45h-360l119 754h360l-7 -45h-312z" />
    <glyph glyph-name="Eacute" unicode="&#xc9;" horiz-adv-x="507" 
d="M505 952l-147 -145l-35 17l124 147zM241 709l-43 -274h304l-7 -45h-304l-55 -345h312l-7 -45h-360l119 754h360l-7 -45h-312z" />
    <glyph glyph-name="Ecircumflex" unicode="&#xca;" horiz-adv-x="507" 
d="M405 951l121 -106l-43 -29l-88 77l-114 -77l-31 29zM241 709l-43 -274h304l-7 -45h-304l-55 -345h312l-7 -45h-360l119 754h360l-7 -45h-312z" />
    <glyph glyph-name="Edieresis" unicode="&#xcb;" horiz-adv-x="507" 
d="M494 931q17 0 27 -11.5t7 -28.5q-2 -17 -15.5 -28.5t-30.5 -11.5t-26.5 11.5t-7.5 28.5q3 17 16 28.5t30 11.5zM307 931q17 0 27 -11.5t7 -28.5q-2 -17 -15.5 -28.5t-30.5 -11.5t-26.5 11.5t-7.5 28.5q3 17 16 28.5t30 11.5zM241 709l-43 -274h304l-7 -45h-304l-55 -345
h312l-7 -45h-360l119 754h360l-7 -45h-312z" />
    <glyph glyph-name="Igrave" unicode="&#xcc;" horiz-adv-x="210" 
d="M239 971l78 -147l-41 -17l-101 145zM129 0h-48l119 754h48z" />
    <glyph glyph-name="Iacute" unicode="&#xcd;" horiz-adv-x="210" 
d="M337 952l-147 -145l-35 17l124 147zM129 0h-48l119 754h48z" />
    <glyph glyph-name="Icircumflex" unicode="&#xce;" horiz-adv-x="210" 
d="M256 951l121 -106l-43 -29l-88 77l-114 -77l-31 29zM129 0h-48l119 754h48z" />
    <glyph glyph-name="Idieresis" unicode="&#xcf;" horiz-adv-x="210" 
d="M346 931q17 0 27 -11.5t7 -28.5q-2 -17 -15.5 -28.5t-30.5 -11.5t-26.5 11.5t-7.5 28.5q3 17 16 28.5t30 11.5zM159 931q17 0 27 -11.5t7 -28.5q-2 -17 -15.5 -28.5t-30.5 -11.5t-26.5 11.5t-7.5 28.5q3 17 16 28.5t30 11.5zM129 0h-48l119 754h48z" />
    <glyph glyph-name="Eth" unicode="&#xd0;" horiz-adv-x="652" 
d="M143 389h-81l7 45h81l50 320h136q41 0 78 -4t69.5 -14.5t62 -29t55.5 -47.5q51 -56 70 -129t6 -154q-13 -78 -53.5 -149.5t-106.5 -126.5q-36 -30 -71.5 -49.5t-72.5 -30.5t-75.5 -15.5t-80.5 -4.5h-136zM198 434h173l-7 -45h-173l-55 -344h87q74 0 139.5 19t128.5 72
q56 48 91.5 110t46.5 130q11 72 -6.5 137t-63.5 114t-103 65.5t-128 16.5h-87z" />
    <glyph glyph-name="Ntilde" unicode="&#xd1;" horiz-adv-x="843" 
d="M414 865q14 24 37 44t51 20q18 0 35 -6t32 -13q17 -7 31.5 -13.5t28.5 -6.5q18 0 32 12.5t22 28.5l26 -22q-11 -27 -37 -46t-54 -19q-13 0 -29 6t-33 14t-33.5 14t-31.5 6q-19 0 -30.5 -12.5t-19.5 -28.5zM758 -25l-526 673l-103 -648h-48l121 764l527 -668l104 658h48z
" />
    <glyph glyph-name="Ograve" unicode="&#xd2;" horiz-adv-x="854" 
d="M561 971l78 -147l-41 -17l-101 145zM541 719q-71 0 -137.5 -27.5t-120.5 -74t-91 -108.5t-48 -132t6 -132t56.5 -108.5t97.5 -74t129 -27.5q70 0 136.5 27.5t120.5 74t91.5 109t48.5 131.5q11 70 -6.5 132t-57 108.5t-97.5 74t-128 27.5zM548 764q79 0 145.5 -30.5
t111.5 -83.5t65 -123.5t8 -149.5q-13 -80 -55.5 -150t-104.5 -123t-138 -83.5t-155 -30.5q-80 0 -146 30.5t-111 83.5t-65 123t-7 150q12 79 54.5 149.5t104 123.5t137.5 83.5t156 30.5z" />
    <glyph glyph-name="Oacute" unicode="&#xd3;" horiz-adv-x="854" 
d="M659 952l-147 -145l-35 17l124 147zM541 719q-71 0 -137.5 -27.5t-120.5 -74t-91 -108.5t-48 -132t6 -132t56.5 -108.5t97.5 -74t129 -27.5q70 0 136.5 27.5t120.5 74t91.5 109t48.5 131.5q11 70 -6.5 132t-57 108.5t-97.5 74t-128 27.5zM548 764q79 0 145.5 -30.5
t111.5 -83.5t65 -123.5t8 -149.5q-13 -80 -55.5 -150t-104.5 -123t-138 -83.5t-155 -30.5q-80 0 -146 30.5t-111 83.5t-65 123t-7 150q12 79 54.5 149.5t104 123.5t137.5 83.5t156 30.5z" />
    <glyph glyph-name="Ocircumflex" unicode="&#xd4;" horiz-adv-x="854" 
d="M578 951l121 -106l-43 -29l-88 77l-114 -77l-31 29zM541 719q-71 0 -137.5 -27.5t-120.5 -74t-91 -108.5t-48 -132t6 -132t56.5 -108.5t97.5 -74t129 -27.5q70 0 136.5 27.5t120.5 74t91.5 109t48.5 131.5q11 70 -6.5 132t-57 108.5t-97.5 74t-128 27.5zM548 764
q79 0 145.5 -30.5t111.5 -83.5t65 -123.5t8 -149.5q-13 -80 -55.5 -150t-104.5 -123t-138 -83.5t-155 -30.5q-80 0 -146 30.5t-111 83.5t-65 123t-7 150q12 79 54.5 149.5t104 123.5t137.5 83.5t156 30.5z" />
    <glyph glyph-name="Otilde" unicode="&#xd5;" horiz-adv-x="854" 
d="M420 865q14 24 37 44t51 20q18 0 35 -6t32 -13q17 -7 31.5 -13.5t28.5 -6.5q18 0 32 12.5t22 28.5l26 -22q-11 -27 -37 -46t-54 -19q-13 0 -29 6t-33 14t-33.5 14t-31.5 6q-19 0 -30.5 -12.5t-19.5 -28.5zM541 719q-71 0 -137.5 -27.5t-120.5 -74t-91 -108.5t-48 -132
t6 -132t56.5 -108.5t97.5 -74t129 -27.5q70 0 136.5 27.5t120.5 74t91.5 109t48.5 131.5q11 70 -6.5 132t-57 108.5t-97.5 74t-128 27.5zM548 764q79 0 145.5 -30.5t111.5 -83.5t65 -123.5t8 -149.5q-13 -80 -55.5 -150t-104.5 -123t-138 -83.5t-155 -30.5q-80 0 -146 30.5
t-111 83.5t-65 123t-7 150q12 79 54.5 149.5t104 123.5t137.5 83.5t156 30.5z" />
    <glyph glyph-name="Odieresis" unicode="&#xd6;" horiz-adv-x="854" 
d="M668 931q17 0 27 -11.5t7 -28.5q-2 -17 -15.5 -28.5t-30.5 -11.5t-26.5 11.5t-7.5 28.5q3 17 16 28.5t30 11.5zM481 931q17 0 27 -11.5t7 -28.5q-2 -17 -15.5 -28.5t-30.5 -11.5t-26.5 11.5t-7.5 28.5q3 17 16 28.5t30 11.5zM541 719q-71 0 -137.5 -27.5t-120.5 -74
t-91 -108.5t-48 -132t6 -132t56.5 -108.5t97.5 -74t129 -27.5q70 0 136.5 27.5t120.5 74t91.5 109t48.5 131.5q11 70 -6.5 132t-57 108.5t-97.5 74t-128 27.5zM548 764q79 0 145.5 -30.5t111.5 -83.5t65 -123.5t8 -149.5q-13 -80 -55.5 -150t-104.5 -123t-138 -83.5
t-155 -30.5q-80 0 -146 30.5t-111 83.5t-65 123t-7 150q12 79 54.5 149.5t104 123.5t137.5 83.5t156 30.5z" />
    <glyph glyph-name="multiply" unicode="&#xd7;" 
d="M130 478l35 34l190 -226l262 226l25 -34l-259 -222l188 -224l-35 -32l-190 225l-261 -225l-26 32l261 224z" />
    <glyph glyph-name="Oslash" unicode="&#xd8;" horiz-adv-x="854" 
d="M158 119q-40 52 -57 118t-5 140q12 79 54.5 149.5t104 123.5t137.5 83.5t156 30.5q74 0 135.5 -26.5t106.5 -72.5l106 91l25 -26l-107 -92q41 -52 58.5 -119t5.5 -142q-13 -80 -55.5 -150t-104.5 -123t-138 -83.5t-155 -30.5q-75 0 -137.5 26.5t-106.5 74.5l-105 -91
l-22 29zM218 123q40 -41 94.5 -64.5t120.5 -23.5q70 0 136.5 27.5t120.5 74t91.5 109t48.5 131.5q10 66 -4.5 124.5t-49.5 103.5zM752 632q-38 41 -92 64t-119 23q-71 0 -137.5 -27.5t-120.5 -74t-91 -108.5t-48 -132q-11 -65 3 -123t48 -103z" />
    <glyph glyph-name="Ugrave" unicode="&#xd9;" horiz-adv-x="660" 
d="M449 971l78 -147l-41 -17l-101 145zM657 754h48l-74 -470q-5 -29 -10 -56t-14 -52.5t-23 -49.5t-37 -48q-45 -44 -103.5 -66t-115.5 -22t-108 22t-83 66q-15 24 -21.5 48t-7.5 49.5t2.5 52.5t8.5 56l74 470h48l-72 -456q-4 -26 -7.5 -51.5t-3.5 -50.5q0 -24 4 -46.5
t16 -41.5q23 -36 68.5 -54.5t89.5 -18.5q22 0 46.5 4.5t48.5 14t46 23t39 31.5q35 38 48 88.5t21 101.5z" />
    <glyph glyph-name="Uacute" unicode="&#xda;" horiz-adv-x="660" 
d="M577 952l-147 -145l-35 17l124 147zM657 754h48l-74 -470q-5 -29 -10 -56t-14 -52.5t-23 -49.5t-37 -48q-45 -44 -103.5 -66t-115.5 -22t-108 22t-83 66q-15 24 -21.5 48t-7.5 49.5t2.5 52.5t8.5 56l74 470h48l-72 -456q-4 -26 -7.5 -51.5t-3.5 -50.5q0 -24 4 -46.5
t16 -41.5q23 -36 68.5 -54.5t89.5 -18.5q22 0 46.5 4.5t48.5 14t46 23t39 31.5q35 38 48 88.5t21 101.5z" />
    <glyph glyph-name="Ucircumflex" unicode="&#xdb;" horiz-adv-x="660" 
d="M481 951l121 -106l-43 -29l-88 77l-114 -77l-31 29zM657 754h48l-74 -470q-5 -29 -10 -56t-14 -52.5t-23 -49.5t-37 -48q-45 -44 -103.5 -66t-115.5 -22t-108 22t-83 66q-15 24 -21.5 48t-7.5 49.5t2.5 52.5t8.5 56l74 470h48l-72 -456q-4 -26 -7.5 -51.5t-3.5 -50.5
q0 -24 4 -46.5t16 -41.5q23 -36 68.5 -54.5t89.5 -18.5q22 0 46.5 4.5t48.5 14t46 23t39 31.5q35 38 48 88.5t21 101.5z" />
    <glyph glyph-name="Udieresis" unicode="&#xdc;" horiz-adv-x="660" 
d="M571 931q17 0 27 -11.5t7 -28.5q-2 -17 -15.5 -28.5t-30.5 -11.5t-26.5 11.5t-7.5 28.5q3 17 16 28.5t30 11.5zM384 931q17 0 27 -11.5t7 -28.5q-2 -17 -15.5 -28.5t-30.5 -11.5t-26.5 11.5t-7.5 28.5q3 17 16 28.5t30 11.5zM657 754h48l-74 -470q-5 -29 -10 -56
t-14 -52.5t-23 -49.5t-37 -48q-45 -44 -103.5 -66t-115.5 -22t-108 22t-83 66q-15 24 -21.5 48t-7.5 49.5t2.5 52.5t8.5 56l74 470h48l-72 -456q-4 -26 -7.5 -51.5t-3.5 -50.5q0 -24 4 -46.5t16 -41.5q23 -36 68.5 -54.5t89.5 -18.5q22 0 46.5 4.5t48.5 14t46 23t39 31.5
q35 38 48 88.5t21 101.5z" />
    <glyph glyph-name="Yacute" unicode="&#xdd;" horiz-adv-x="559" 
d="M541 952l-147 -145l-35 17l124 147zM123 754h53l162 -382l282 382h53l-319 -432l-51 -322h-48l51 322z" />
    <glyph glyph-name="Thorn" unicode="&#xde;" horiz-adv-x="472" 
d="M254 243q37 0 71 7.5t68 33.5q29 23 45.5 51.5t21.5 61.5q5 35 -3.5 68t-34.5 54q-25 22 -58.5 26t-68.5 4h-79l-49 -306h87zM200 754h48l-25 -160h85q45 0 85 -7t71 -37q30 -29 40.5 -69.5t3.5 -85.5q-7 -41 -29 -82t-58 -67q-39 -30 -85 -39t-91 -9h-85l-31 -198h-48z
" />
    <glyph glyph-name="germandbls" unicode="&#xdf;" horiz-adv-x="534" 
d="M144 420h-49l6 42h49l30 188q5 35 16.5 69.5t38.5 61.5q28 29 66.5 43t75.5 14q35 0 62 -12.5t45 -34t25 -51.5t1 -64q-7 -45 -35.5 -82.5t-73.5 -53.5l-1 -2q40 -12 70.5 -37.5t49.5 -61t26 -77t0 -84.5q-9 -57 -38.5 -106.5t-72.5 -87t-96 -61.5t-109 -29l7 42
q47 7 91.5 27.5t80.5 52t60 73t32 89.5q8 50 -3 91t-36.5 72t-63.5 49.5t-86 23.5l7 42q57 1 97.5 34.5t49.5 90.5q8 52 -22 83.5t-81 31.5q-27 0 -56 -11.5t-48 -36.5q-17 -23 -24.5 -55t-12.5 -59l-100 -634h-45z" />
    <glyph glyph-name="agrave" unicode="&#xe0;" horiz-adv-x="560" 
d="M358 714l78 -147l-41 -17l-101 145zM483 0h-45l13 83h-2q-16 -22 -38.5 -39.5t-48 -29.5t-52.5 -18t-52 -6q-53 0 -92 19t-63 52t-33 77.5t-1 95.5t30.5 94.5t57 75.5t79.5 50t97 18q54 0 97.5 -23t66.5 -67h2l12 80h45zM324 430q-40 0 -75.5 -16.5t-63.5 -44t-46.5 -63
t-24.5 -72.5q-6 -40 0.5 -76.5t26 -64.5t50.5 -44.5t73 -16.5q44 0 80.5 16.5t64.5 45t45.5 66t24.5 79.5q6 40 -1.5 75t-27.5 60.5t-52 40.5t-74 15z" />
    <glyph glyph-name="aacute" unicode="&#xe1;" horiz-adv-x="560" 
d="M486 695l-147 -145l-35 17l124 147zM483 0h-45l13 83h-2q-16 -22 -38.5 -39.5t-48 -29.5t-52.5 -18t-52 -6q-53 0 -92 19t-63 52t-33 77.5t-1 95.5t30.5 94.5t57 75.5t79.5 50t97 18q54 0 97.5 -23t66.5 -67h2l12 80h45zM324 430q-40 0 -75.5 -16.5t-63.5 -44t-46.5 -63
t-24.5 -72.5q-6 -40 0.5 -76.5t26 -64.5t50.5 -44.5t73 -16.5q44 0 80.5 16.5t64.5 45t45.5 66t24.5 79.5q6 40 -1.5 75t-27.5 60.5t-52 40.5t-74 15z" />
    <glyph glyph-name="acircumflex" unicode="&#xe2;" horiz-adv-x="560" 
d="M390 694l121 -106l-42 -29l-88 77l-114 -77l-32 29zM483 0h-45l13 83h-2q-16 -22 -38.5 -39.5t-48 -29.5t-52.5 -18t-52 -6q-53 0 -92 19t-63 52t-33 77.5t-1 95.5t30.5 94.5t57 75.5t79.5 50t97 18q54 0 97.5 -23t66.5 -67h2l12 80h45zM324 430q-40 0 -75.5 -16.5
t-63.5 -44t-46.5 -63t-24.5 -72.5q-6 -40 0.5 -76.5t26 -64.5t50.5 -44.5t73 -16.5q44 0 80.5 16.5t64.5 45t45.5 66t24.5 79.5q6 40 -1.5 75t-27.5 60.5t-52 40.5t-74 15z" />
    <glyph glyph-name="atilde" unicode="&#xe3;" horiz-adv-x="560" 
d="M232 608q14 24 37 44t51 20q18 0 35 -6t32 -13q17 -7 31.5 -13.5t28.5 -6.5q18 0 32.5 12.5t22.5 28.5l25 -22q-11 -27 -37 -46t-54 -19q-13 0 -29 6t-33 14q-16 8 -33 14t-32 6q-19 0 -30.5 -12.5t-19.5 -28.5zM483 0h-45l13 83h-2q-16 -22 -38.5 -39.5t-48 -29.5
t-52.5 -18t-52 -6q-53 0 -92 19t-63 52t-33 77.5t-1 95.5t30.5 94.5t57 75.5t79.5 50t97 18q54 0 97.5 -23t66.5 -67h2l12 80h45zM324 430q-40 0 -75.5 -16.5t-63.5 -44t-46.5 -63t-24.5 -72.5q-6 -40 0.5 -76.5t26 -64.5t50.5 -44.5t73 -16.5q44 0 80.5 16.5t64.5 45
t45.5 66t24.5 79.5q6 40 -1.5 75t-27.5 60.5t-52 40.5t-74 15z" />
    <glyph glyph-name="adieresis" unicode="&#xe4;" horiz-adv-x="560" 
d="M481 674q17 0 26.5 -11.5t6.5 -28.5q-2 -17 -15.5 -28.5t-30.5 -11.5t-26.5 11.5t-7.5 28.5q3 17 16.5 28.5t30.5 11.5zM294 674q17 0 26.5 -11.5t6.5 -28.5q-2 -17 -15.5 -28.5t-30.5 -11.5t-26.5 11.5t-7.5 28.5q3 17 16.5 28.5t30.5 11.5zM483 0h-45l13 83h-2
q-16 -22 -38.5 -39.5t-48 -29.5t-52.5 -18t-52 -6q-53 0 -92 19t-63 52t-33 77.5t-1 95.5t30.5 94.5t57 75.5t79.5 50t97 18q54 0 97.5 -23t66.5 -67h2l12 80h45zM324 430q-40 0 -75.5 -16.5t-63.5 -44t-46.5 -63t-24.5 -72.5q-6 -40 0.5 -76.5t26 -64.5t50.5 -44.5
t73 -16.5q44 0 80.5 16.5t64.5 45t45.5 66t24.5 79.5q6 40 -1.5 75t-27.5 60.5t-52 40.5t-74 15z" />
    <glyph glyph-name="aring" unicode="&#xe5;" horiz-adv-x="560" 
d="M387 674q-20 0 -36 -13.5t-19 -33.5t8.5 -33.5t31.5 -13.5t35.5 13.5t18.5 33.5t-8 33.5t-31 13.5zM393 714q36 0 57.5 -25.5t15.5 -61.5q-3 -18 -12 -34t-22.5 -27.5t-30.5 -18.5t-35 -7q-36 0 -57.5 25.5t-16.5 61.5q3 18 12.5 34t23 27.5t30.5 18.5t35 7zM483 0h-45
l13 83h-2q-16 -22 -38.5 -39.5t-48 -29.5t-52.5 -18t-52 -6q-53 0 -92 19t-63 52t-33 77.5t-1 95.5t30.5 94.5t57 75.5t79.5 50t97 18q54 0 97.5 -23t66.5 -67h2l12 80h45zM324 430q-40 0 -75.5 -16.5t-63.5 -44t-46.5 -63t-24.5 -72.5q-6 -40 0.5 -76.5t26 -64.5
t50.5 -44.5t73 -16.5q44 0 80.5 16.5t64.5 45t45.5 66t24.5 79.5q6 40 -1.5 75t-27.5 60.5t-52 40.5t-74 15z" />
    <glyph glyph-name="ae" unicode="&#xe6;" horiz-adv-x="849" 
d="M819 110q-43 -54 -101 -87t-124 -33q-59 0 -107 30t-64 84h-2q-13 -31 -36.5 -52.5t-52 -35t-60.5 -20t-61 -6.5q-32 0 -65 8.5t-58 26t-38.5 44.5t-7.5 65q6 39 29.5 67t56 45t69 25t69.5 8q42 0 77 -10t64 -39q7 40 4 76.5t-18 64t-44 43.5t-74 16q-41 0 -81.5 -12.5
t-80.5 -29.5l8 46q42 20 84 29t86 9q65 0 106.5 -33.5t53.5 -94.5q35 58 94.5 93t122.5 35q52 0 90.5 -20t62 -54t31.5 -78.5t1 -93.5h-401q-5 -39 2.5 -74t27 -62t50 -42.5t71.5 -15.5q54 0 101.5 29.5t80.5 74.5zM260 237q-24 0 -52.5 -4.5t-53.5 -16.5t-43.5 -31.5
t-23.5 -49.5q-5 -31 6 -51t31.5 -31.5t46.5 -16t51 -4.5q23 0 51 5.5t53 18t43.5 32t22.5 47.5q5 29 -6 48.5t-31 31.5t-45.5 17t-49.5 5zM814 268q1 32 -9.5 61t-30.5 51.5t-48 36t-62 13.5q-35 0 -68.5 -13t-61.5 -35.5t-48 -51.5t-28 -62h356z" />
    <glyph glyph-name="ccedilla" unicode="&#xe7;" horiz-adv-x="477" 
d="M173 -183l-35 19l116 144l52 -22zM487 355q-27 36 -64 55.5t-87 19.5q-41 0 -78.5 -16t-67.5 -43.5t-50 -63.5t-26 -75t2.5 -75.5t29.5 -64t53 -44t73 -16.5q50 0 97.5 22.5t85.5 60.5l-9 -61q-41 -31 -86.5 -47.5t-92.5 -16.5q-51 0 -91.5 19t-67 51.5t-37 76.5t-2.5 95
q8 50 33 94t62 76.5t83.5 51t97.5 18.5q45 0 83.5 -14t68.5 -43z" />
    <glyph glyph-name="egrave" unicode="&#xe8;" horiz-adv-x="510" 
d="M333 714l78 -147l-41 -17l-101 145zM476 269q1 32 -9.5 61t-30 51.5t-47.5 35.5t-64 13q-35 0 -68.5 -13t-61.5 -35t-47.5 -51t-27.5 -62h356zM113 227q-8 -44 0 -80t29 -61.5t53 -39.5t72 -14q54 0 101 29t79 76l34 -22q-41 -60 -99.5 -92.5t-127.5 -32.5
q-51 0 -89.5 19.5t-62.5 52.5t-32.5 77t-0.5 93q7 48 30 91.5t57.5 76.5t79 52.5t95.5 19.5q52 0 90.5 -19.5t61.5 -53t31 -78t0 -94.5h-401z" />
    <glyph glyph-name="eacute" unicode="&#xe9;" horiz-adv-x="510" 
d="M461 695l-147 -145l-35 17l124 147zM476 269q1 32 -9.5 61t-30 51.5t-47.5 35.5t-64 13q-35 0 -68.5 -13t-61.5 -35t-47.5 -51t-27.5 -62h356zM113 227q-8 -44 0 -80t29 -61.5t53 -39.5t72 -14q54 0 101 29t79 76l34 -22q-41 -60 -99.5 -92.5t-127.5 -32.5
q-51 0 -89.5 19.5t-62.5 52.5t-32.5 77t-0.5 93q7 48 30 91.5t57.5 76.5t79 52.5t95.5 19.5q52 0 90.5 -19.5t61.5 -53t31 -78t0 -94.5h-401z" />
    <glyph glyph-name="ecircumflex" unicode="&#xea;" horiz-adv-x="510" 
d="M365 694l121 -106l-42 -29l-88 77l-114 -77l-32 29zM476 269q1 32 -9.5 61t-30 51.5t-47.5 35.5t-64 13q-35 0 -68.5 -13t-61.5 -35t-47.5 -51t-27.5 -62h356zM113 227q-8 -44 0 -80t29 -61.5t53 -39.5t72 -14q54 0 101 29t79 76l34 -22q-41 -60 -99.5 -92.5
t-127.5 -32.5q-51 0 -89.5 19.5t-62.5 52.5t-32.5 77t-0.5 93q7 48 30 91.5t57.5 76.5t79 52.5t95.5 19.5q52 0 90.5 -19.5t61.5 -53t31 -78t0 -94.5h-401z" />
    <glyph glyph-name="edieresis" unicode="&#xeb;" horiz-adv-x="510" 
d="M456 674q17 0 26.5 -11.5t6.5 -28.5q-2 -17 -15.5 -28.5t-30.5 -11.5t-26.5 11.5t-7.5 28.5q3 17 16.5 28.5t30.5 11.5zM269 674q17 0 26.5 -11.5t6.5 -28.5q-2 -17 -15.5 -28.5t-30.5 -11.5t-26.5 11.5t-7.5 28.5q3 17 16.5 28.5t30.5 11.5zM476 269q1 32 -9.5 61
t-30 51.5t-47.5 35.5t-64 13q-35 0 -68.5 -13t-61.5 -35t-47.5 -51t-27.5 -62h356zM113 227q-8 -44 0 -80t29 -61.5t53 -39.5t72 -14q54 0 101 29t79 76l34 -22q-41 -60 -99.5 -92.5t-127.5 -32.5q-51 0 -89.5 19.5t-62.5 52.5t-32.5 77t-0.5 93q7 48 30 91.5t57.5 76.5
t79 52.5t95.5 19.5q52 0 90.5 -19.5t61.5 -53t31 -78t0 -94.5h-401z" />
    <glyph glyph-name="igrave" unicode="&#xec;" horiz-adv-x="234" 
d="M195 714l78 -147l-41 -17l-101 145zM139 0h-45l73 462h45z" />
    <glyph glyph-name="iacute" unicode="&#xed;" horiz-adv-x="234" 
d="M323 695l-147 -145l-35 17l124 147zM139 0h-45l73 462h45z" />
    <glyph glyph-name="icircumflex" unicode="&#xee;" horiz-adv-x="234" 
d="M227 694l121 -106l-42 -29l-88 77l-114 -77l-32 29zM139 0h-45l73 462h45z" />
    <glyph glyph-name="idieresis" unicode="&#xef;" horiz-adv-x="234" 
d="M318 674q17 0 26.5 -11.5t6.5 -28.5q-2 -17 -15.5 -28.5t-30.5 -11.5t-26.5 11.5t-7.5 28.5q3 17 16.5 28.5t30.5 11.5zM131 674q17 0 26.5 -11.5t6.5 -28.5q-2 -17 -15.5 -28.5t-30.5 -11.5t-26.5 11.5t-7.5 28.5q3 17 16.5 28.5t30.5 11.5zM139 0h-45l73 462h45z" />
    <glyph glyph-name="eth" unicode="&#xf0;" horiz-adv-x="547" 
d="M337 430q-41 0 -79 -16t-68 -43.5t-50.5 -64t-26.5 -76.5q-6 -39 3 -75t30.5 -63.5t54 -43.5t73.5 -16q42 0 81.5 15t70.5 42t52.5 63t27.5 78q7 43 -2.5 79.5t-32.5 63.5t-57 42t-77 15zM252 828q35 -23 63.5 -44.5t60.5 -50.5l169 87l20 -33l-160 -82q42 -43 75 -93
t53 -106.5t26.5 -118t-3.5 -127.5q-11 -71 -40.5 -122t-69 -84t-85.5 -48.5t-91 -15.5q-50 0 -91 19t-68 52t-38.5 77t-3.5 93q7 48 32.5 92t63.5 77.5t85.5 53t99.5 19.5q33 0 58.5 -7t44.5 -17.5t32.5 -23t22.5 -22.5q-7 37 -17.5 71.5t-27 68t-41.5 67.5t-61 72l-159 -82
l-20 34l149 75q-26 26 -55.5 47.5t-60.5 41.5z" />
    <glyph glyph-name="ntilde" unicode="&#xf1;" horiz-adv-x="490" 
d="M197 608q14 24 37 44t51 20q18 0 35 -6t32 -13q17 -7 31.5 -13.5t28.5 -6.5q18 0 32.5 12.5t22.5 28.5l25 -22q-11 -27 -37 -46t-54 -19q-13 0 -29 6t-33 14q-16 8 -33 14t-32 6q-19 0 -30.5 -12.5t-19.5 -28.5zM184 390h2q26 38 65.5 60t84.5 22t72 -13.5t40.5 -38.5
t14.5 -60.5t-6 -80.5l-44 -279h-45l44 279q5 31 6 58.5t-7 48t-28 32.5t-58 12q-44 0 -73 -18.5t-48 -47.5t-29.5 -65t-16.5 -71l-36 -228h-45l73 462h45z" />
    <glyph glyph-name="ograve" unicode="&#xf2;" horiz-adv-x="547" 
d="M351 714l78 -147l-41 -17l-101 145zM337 430q-41 0 -79 -16t-68 -43.5t-50.5 -64t-26.5 -76.5q-6 -39 3 -75t30.5 -63.5t54 -43.5t73.5 -16q42 0 81.5 15t70.5 42t52.5 63t27.5 78q7 43 -2.5 79.5t-32.5 63.5t-57 42t-77 15zM347 472q51 0 92.5 -18.5t69 -50.5
t39.5 -76.5t4 -95.5t-34 -95.5t-64 -76.5t-85.5 -50.5t-98.5 -18.5q-50 0 -90.5 19t-68 52t-39.5 76.5t-4 92.5q8 50 33.5 94t63.5 77t85 52t97 19z" />
    <glyph glyph-name="oacute" unicode="&#xf3;" horiz-adv-x="547" 
d="M479 695l-147 -145l-35 17l124 147zM337 430q-41 0 -79 -16t-68 -43.5t-50.5 -64t-26.5 -76.5q-6 -39 3 -75t30.5 -63.5t54 -43.5t73.5 -16q42 0 81.5 15t70.5 42t52.5 63t27.5 78q7 43 -2.5 79.5t-32.5 63.5t-57 42t-77 15zM347 472q51 0 92.5 -18.5t69 -50.5
t39.5 -76.5t4 -95.5t-34 -95.5t-64 -76.5t-85.5 -50.5t-98.5 -18.5q-50 0 -90.5 19t-68 52t-39.5 76.5t-4 92.5q8 50 33.5 94t63.5 77t85 52t97 19z" />
    <glyph glyph-name="ocircumflex" unicode="&#xf4;" horiz-adv-x="547" 
d="M384 694l121 -106l-42 -29l-88 77l-114 -77l-32 29zM337 430q-41 0 -79 -16t-68 -43.5t-50.5 -64t-26.5 -76.5q-6 -39 3 -75t30.5 -63.5t54 -43.5t73.5 -16q42 0 81.5 15t70.5 42t52.5 63t27.5 78q7 43 -2.5 79.5t-32.5 63.5t-57 42t-77 15zM347 472q51 0 92.5 -18.5
t69 -50.5t39.5 -76.5t4 -95.5t-34 -95.5t-64 -76.5t-85.5 -50.5t-98.5 -18.5q-50 0 -90.5 19t-68 52t-39.5 76.5t-4 92.5q8 50 33.5 94t63.5 77t85 52t97 19z" />
    <glyph glyph-name="otilde" unicode="&#xf5;" horiz-adv-x="547" 
d="M225 608q14 24 37 44t51 20q18 0 35 -6t32 -13q17 -7 31.5 -13.5t28.5 -6.5q18 0 32.5 12.5t22.5 28.5l25 -22q-11 -27 -37 -46t-54 -19q-13 0 -29 6t-33 14q-16 8 -33 14t-32 6q-19 0 -30.5 -12.5t-19.5 -28.5zM337 430q-41 0 -79 -16t-68 -43.5t-50.5 -64t-26.5 -76.5
q-6 -39 3 -75t30.5 -63.5t54 -43.5t73.5 -16q42 0 81.5 15t70.5 42t52.5 63t27.5 78q7 43 -2.5 79.5t-32.5 63.5t-57 42t-77 15zM347 472q51 0 92.5 -18.5t69 -50.5t39.5 -76.5t4 -95.5t-34 -95.5t-64 -76.5t-85.5 -50.5t-98.5 -18.5q-50 0 -90.5 19t-68 52t-39.5 76.5
t-4 92.5q8 50 33.5 94t63.5 77t85 52t97 19z" />
    <glyph glyph-name="odieresis" unicode="&#xf6;" horiz-adv-x="547" 
d="M474 674q17 0 26.5 -11.5t6.5 -28.5q-2 -17 -15.5 -28.5t-30.5 -11.5t-26.5 11.5t-7.5 28.5q3 17 16.5 28.5t30.5 11.5zM287 674q17 0 26.5 -11.5t6.5 -28.5q-2 -17 -15.5 -28.5t-30.5 -11.5t-26.5 11.5t-7.5 28.5q3 17 16.5 28.5t30.5 11.5zM337 430q-41 0 -79 -16
t-68 -43.5t-50.5 -64t-26.5 -76.5q-6 -39 3 -75t30.5 -63.5t54 -43.5t73.5 -16q42 0 81.5 15t70.5 42t52.5 63t27.5 78q7 43 -2.5 79.5t-32.5 63.5t-57 42t-77 15zM347 472q51 0 92.5 -18.5t69 -50.5t39.5 -76.5t4 -95.5t-34 -95.5t-64 -76.5t-85.5 -50.5t-98.5 -18.5
q-50 0 -90.5 19t-68 52t-39.5 76.5t-4 92.5q8 50 33.5 94t63.5 77t85 52t97 19z" />
    <glyph glyph-name="divide" unicode="&#xf7;" 
d="M391 512q17 0 27 -12t8 -29q-3 -17 -17 -29t-31 -12t-27 12t-7 29q2 17 16 29t31 12zM323 82q17 0 27 -12t7 -29q-2 -17 -16 -29t-31 -12t-27 12t-8 29q3 17 17 29t31 12zM98 280h512l-7 -48h-512z" />
    <glyph glyph-name="oslash" unicode="&#xf8;" horiz-adv-x="547" 
d="M100 77q-22 32 -30.5 70.5t-1.5 82.5q8 50 33.5 94t63.5 77t85 52t97 19q45 0 82.5 -14.5t64.5 -40.5l73 63l23 -29l-71 -62q22 -30 31 -70.5t2 -87.5q-8 -51 -34 -95.5t-64 -76.5t-85.5 -50.5t-98.5 -18.5q-46 0 -83.5 16t-63.5 44l-70 -60l-22 27zM158 80
q21 -23 50.5 -35.5t65.5 -12.5q42 0 81.5 15t70.5 42t52.5 63t27.5 78q6 38 -0.5 70t-23.5 57zM458 386q-23 21 -53.5 32.5t-67.5 11.5q-41 0 -79 -16t-68 -43.5t-50.5 -64t-26.5 -76.5q-5 -34 1 -65.5t22 -56.5z" />
    <glyph glyph-name="ugrave" unicode="&#xf9;" horiz-adv-x="472" 
d="M304 714l78 -147l-41 -17l-101 145zM475 462l-44 -277q-5 -35 -14 -69.5t-35 -63.5q-29 -32 -69 -47t-79 -15t-73.5 15t-54.5 47q-17 29 -14.5 63.5t7.5 69.5l44 277h45l-41 -261q-5 -33 -6.5 -64t7 -54t30 -37t63.5 -14t68 14t42 37t24.5 54t13.5 64l41 261h45z" />
    <glyph glyph-name="uacute" unicode="&#xfa;" horiz-adv-x="472" 
d="M452 695l-147 -145l-35 17l124 147zM475 462l-44 -277q-5 -35 -14 -69.5t-35 -63.5q-29 -32 -69 -47t-79 -15t-73.5 15t-54.5 47q-17 29 -14.5 63.5t7.5 69.5l44 277h45l-41 -261q-5 -33 -6.5 -64t7 -54t30 -37t63.5 -14t68 14t42 37t24.5 54t13.5 64l41 261h45z" />
    <glyph glyph-name="ucircumflex" unicode="&#xfb;" horiz-adv-x="472" 
d="M346 694l121 -106l-42 -29l-88 77l-114 -77l-32 29zM475 462l-44 -277q-5 -35 -14 -69.5t-35 -63.5q-29 -32 -69 -47t-79 -15t-73.5 15t-54.5 47q-17 29 -14.5 63.5t7.5 69.5l44 277h45l-41 -261q-5 -33 -6.5 -64t7 -54t30 -37t63.5 -14t68 14t42 37t24.5 54t13.5 64
l41 261h45z" />
    <glyph glyph-name="udieresis" unicode="&#xfc;" horiz-adv-x="472" 
d="M437 674q17 0 26.5 -11.5t6.5 -28.5q-2 -17 -15.5 -28.5t-30.5 -11.5t-26.5 11.5t-7.5 28.5q3 17 16.5 28.5t30.5 11.5zM250 674q17 0 26.5 -11.5t6.5 -28.5q-2 -17 -15.5 -28.5t-30.5 -11.5t-26.5 11.5t-7.5 28.5q3 17 16.5 28.5t30.5 11.5zM475 462l-44 -277
q-5 -35 -14 -69.5t-35 -63.5q-29 -32 -69 -47t-79 -15t-73.5 15t-54.5 47q-17 29 -14.5 63.5t7.5 69.5l44 277h45l-41 -261q-5 -33 -6.5 -64t7 -54t30 -37t63.5 -14t68 14t42 37t24.5 54t13.5 64l41 261h45z" />
    <glyph glyph-name="yacute" unicode="&#xfd;" horiz-adv-x="460" 
d="M451 695l-147 -145l-35 17l124 147zM66 462h47l131 -418l243 418h46l-426 -732h-46l153 262z" />
    <glyph glyph-name="thorn" unicode="&#xfe;" horiz-adv-x="560" 
d="M79 -270h-45l174 1095h45l-71 -446h2q16 22 38.5 39.5t48 29.5t52 18t52.5 6q53 0 92 -19.5t63 -52.5t33 -77.5t1 -95.5t-30.5 -94t-57 -75t-79.5 -50t-97 -18q-54 0 -98 22.5t-65 67.5h-2zM369 430q-44 0 -80.5 -17t-64.5 -46t-45.5 -66.5t-24.5 -79.5q-6 -41 1.5 -75.5
t27.5 -59.5t51.5 -39.5t73.5 -14.5q40 0 76 16t63.5 42.5t46.5 61.5t25 74q6 40 -0.5 76.5t-25.5 65t-50.5 45.5t-73.5 17z" />
    <glyph glyph-name="ydieresis" unicode="&#xff;" horiz-adv-x="460" 
d="M436 674q17 0 26.5 -11.5t6.5 -28.5q-2 -17 -15.5 -28.5t-30.5 -11.5t-26.5 11.5t-7.5 28.5q3 17 16.5 28.5t30.5 11.5zM249 674q17 0 26.5 -11.5t6.5 -28.5q-2 -17 -15.5 -28.5t-30.5 -11.5t-26.5 11.5t-7.5 28.5q3 17 16.5 28.5t30.5 11.5zM66 462h47l131 -418l243 418
h46l-426 -732h-46l153 262z" />
    <glyph glyph-name="OE" unicode="&#x152;" horiz-adv-x="1193" 
d="M543 719q-69 0 -136 -27.5t-122 -74t-92.5 -108.5t-48.5 -132q-11 -69 6 -132.5t60 -111.5q39 -46 98 -72t125 -26q69 0 137.5 28t124.5 78q54 48 87 108.5t44 127.5q11 69 -5.5 131.5t-55 109t-95.5 74t-127 27.5zM798 194h-2q-30 -48 -72.5 -85.5t-91.5 -64
t-102.5 -40.5t-105.5 -14q-75 0 -140.5 29t-111.5 80q-50 55 -69.5 126.5t-6.5 151.5q13 81 55.5 151.5t104.5 123t138.5 82.5t156.5 30q52 0 100 -14.5t87.5 -41.5t69.5 -65t45 -85h2l31 196h360l-7 -45h-312l-43 -274h305l-7 -45h-305l-55 -345h312l-7 -45h-360z" />
    <glyph glyph-name="oe" unicode="&#x153;" horiz-adv-x="945" 
d="M344 430q-43 0 -82 -16t-70 -43.5t-51.5 -64.5t-27.5 -79q-6 -39 3.5 -74.5t32 -62t55 -42.5t72.5 -16q41 0 79.5 15.5t69.5 42.5t52.5 63t27.5 77q6 40 -3 76.5t-30.5 64t-54 43.5t-73.5 16zM911 269q1 32 -9.5 61t-30 51.5t-47.5 35.5t-64 13q-35 0 -68.5 -13
t-60.5 -35t-46.5 -51t-27.5 -62h354zM550 227q-9 -40 -1 -75.5t28.5 -62t52 -42t71.5 -15.5q57 0 102.5 28t77.5 79l34 -23q-39 -61 -98 -93.5t-127 -32.5q-33 0 -62.5 9.5t-53 27.5t-40 43t-23.5 56q-20 -31 -46.5 -56t-58 -43t-65.5 -27.5t-68 -9.5q-51 0 -92 18.5t-69 51
t-40 76t-4 94.5t34.5 95.5t65 77t86 51t98.5 18.5q34 0 65 -9.5t56.5 -27t44 -42t27.5 -55.5q34 64 93.5 99t127.5 35q54 0 92 -19.5t61 -52.5t30.5 -77.5t-0.5 -95.5h-399z" />
    <glyph glyph-name="Scaron" unicode="&#x160;" horiz-adv-x="544" 
d="M411 816l-121 107l43 28l88 -76l114 76l31 -28zM530 630q-20 41 -52.5 65t-86.5 24q-30 0 -58 -11.5t-50 -31t-37 -45.5t-20 -56t4.5 -51.5t26.5 -38t39.5 -28.5t43.5 -23l132 -75q38 -27 54 -63t8 -87q-8 -47 -34 -87t-63.5 -69.5t-82.5 -46t-91 -16.5q-79 0 -130 44.5
t-66 117.5l45 19q14 -60 53 -98t108 -38q37 0 73 13.5t65 37.5t49.5 56.5t26.5 70.5q5 32 -6 55.5t-30.5 41t-44.5 31t-47 25.5l-125 72q-34 23 -49 56.5t-7 78.5q6 42 26 77t49.5 60.5t67.5 39.5t80 14q57 0 102.5 -28.5t64.5 -77.5z" />
    <glyph glyph-name="scaron" unicode="&#x161;" horiz-adv-x="375" 
d="M277 559l-122 107l43 28l88 -76l114 76l31 -28zM331 378q-8 24 -27 38t-46 14q-15 0 -30 -5.5t-27.5 -15.5t-21.5 -23t-11 -28q-5 -28 9.5 -43.5t37.5 -26.5t50.5 -21t50.5 -25.5t35.5 -40.5t5.5 -67q-5 -32 -21 -58.5t-39 -45.5t-52 -29.5t-60 -10.5q-58 0 -96 32.5
t-43 89.5l46 14q6 -42 30 -68t70 -26q22 0 42 8t36.5 22t27.5 33t15 41q3 21 -2 36t-16.5 25t-26.5 17t-31 13q-22 9 -44.5 19t-39.5 24.5t-26.5 35t-4.5 49.5q4 26 18 47.5t33.5 37t44 24t49.5 8.5q35 0 65.5 -21t40.5 -53z" />
    <glyph glyph-name="Ydieresis" unicode="&#x178;" horiz-adv-x="559" 
d="M532 931q17 0 27 -11.5t7 -28.5q-2 -17 -15.5 -28.5t-30.5 -11.5t-26.5 11.5t-7.5 28.5q3 17 16 28.5t30 11.5zM345 931q17 0 27 -11.5t7 -28.5q-2 -17 -15.5 -28.5t-30.5 -11.5t-26.5 11.5t-7.5 28.5q3 17 16 28.5t30 11.5zM123 754h53l162 -382l282 382h53l-319 -432
l-51 -322h-48l51 322z" />
    <glyph glyph-name="florin" unicode="&#x192;" 
d="M562 486l-16 -45h-115l-132 -380q-11 -32 -23.5 -67.5t-31.5 -65t-46.5 -49t-69.5 -19.5q-22 0 -40.5 4.5t-36.5 12.5l15 42q17 -7 31.5 -10.5t33.5 -3.5q18 0 34.5 4.5t28.5 20.5q16 21 27.5 48.5t19.5 51.5l144 411h-69l16 45h68l74 214q8 22 18 47.5t25 44.5
q19 23 47.5 34.5t54.5 11.5q19 0 33 -3.5t29 -11.5l-15 -41q-24 11 -50 11q-29 0 -46.5 -11.5t-28.5 -29.5t-18.5 -40.5t-14.5 -44.5l-62 -181h116z" />
    <glyph glyph-name="circumflex" unicode="&#x2c6;" horiz-adv-x="426" 
d="M323 694l121 -106l-42 -29l-88 77l-114 -77l-32 29z" />
    <glyph glyph-name="tilde" unicode="&#x2dc;" horiz-adv-x="439" 
d="M171 608q14 24 37 44t51 20q18 0 35 -6t32 -13q17 -7 31.5 -13.5t28.5 -6.5q18 0 32.5 12.5t22.5 28.5l25 -22q-11 -27 -37 -46t-54 -19q-13 0 -29 6t-33 14q-16 8 -33 14t-32 6q-19 0 -30.5 -12.5t-19.5 -28.5z" />
    <glyph glyph-name="endash" unicode="&#x2013;" horiz-adv-x="500" 
d="M554 342l-7 -45h-500l7 45h500z" />
    <glyph glyph-name="emdash" unicode="&#x2014;" horiz-adv-x="1000" 
d="M924 342l-7 -45h-740l7 45h740z" />
    <glyph glyph-name="quoteleft" unicode="&#x2018;" horiz-adv-x="259" 
d="M158 537l119 227l28 -11l-104 -229z" />
    <glyph glyph-name="quoteright" unicode="&#x2019;" horiz-adv-x="259" 
d="M305 751l-119 -227l-28 11l104 229z" />
    <glyph glyph-name="quotesinglbase" unicode="&#x201a;" horiz-adv-x="259" 
d="M196 60l-119 -226l-29 11l105 229z" />
    <glyph glyph-name="quotedblleft" unicode="&#x201c;" horiz-adv-x="390" 
d="M158 537l119 227l28 -11l-104 -229zM289 537l119 227l28 -11l-104 -229z" />
    <glyph glyph-name="quotedblright" unicode="&#x201d;" horiz-adv-x="390" 
d="M436 751l-119 -227l-28 11l104 229zM305 751l-119 -227l-28 11l104 229z" />
    <glyph glyph-name="quotedblbase" unicode="&#x201e;" horiz-adv-x="390" 
d="M327 60l-119 -226l-29 11l105 229zM196 60l-119 -226l-29 11l105 229z" />
    <glyph glyph-name="dagger" unicode="&#x2020;" 
d="M453 754l-31 -199h181l-7 -45h-181l-109 -688h-48l109 688h-181l7 45h181l31 199h48z" />
    <glyph glyph-name="daggerdbl" unicode="&#x2021;" 
d="M453 754l-31 -199h181l-7 -45h-181l-68 -428h181l-7 -45h-181l-34 -215h-48l34 215h-181l7 45h181l68 428h-181l7 45h181l31 199h48z" />
    <glyph glyph-name="bullet" unicode="&#x2022;" 
d="M401 566q40 0 72 -15t53 -40.5t30 -60t3 -73.5t-26 -73t-49 -59.5t-66 -40.5t-77 -15q-41 0 -73 15t-53.5 40.5t-30 59.5t-2.5 73t26 73.5t49 60t66 40.5t78 15z" />
    <glyph glyph-name="ellipsis" unicode="&#x2026;" horiz-adv-x="1000" 
d="M845 75q17 0 27 -12t7 -29q-2 -17 -16 -29t-31 -12t-27 12t-8 29q3 17 17 29t31 12zM512 75q17 0 27 -12t7 -29q-2 -17 -16 -29t-31 -12t-27 12t-8 29q3 17 17 29t31 12zM179 75q17 0 27 -12t7 -29q-2 -17 -16 -29t-31 -12t-27 12t-8 29q3 17 17 29t31 12z" />
    <glyph glyph-name="perthousand" unicode="&#x2030;" horiz-adv-x="1034" 
d="M523 247q-22 0 -43.5 -8.5t-38.5 -22.5t-29 -34t-16 -42q-3 -22 3 -41t18.5 -33.5t31.5 -22.5t41 -8t43 8t38.5 22.5t29.5 33.5t15 41q4 22 -2 42t-18.5 34t-31.5 22.5t-41 8.5zM530 289q32 0 58 -11t43 -31t24.5 -47t2.5 -60q-5 -32 -21 -59t-40 -46.5t-53.5 -30.5
t-60.5 -11q-32 0 -57.5 11t-43 30.5t-25.5 46.5t-3 59q5 33 21.5 60t40 47t53 31t61.5 11zM690 754l-570 -771l-28 18l568 770zM294 719q-22 0 -43.5 -8.5t-39 -22.5t-29.5 -34t-15 -42t2.5 -41t18.5 -33.5t31.5 -22.5t40.5 -8t43.5 8t39 22.5t29.5 33.5t15 41t-2.5 42
t-18.5 34t-31.5 22.5t-40.5 8.5zM301 761q32 0 58 -11t43 -31t24.5 -47t2.5 -60q-5 -32 -21.5 -59t-40 -46.5t-53 -30.5t-60.5 -11q-32 0 -58 11t-43.5 30.5t-25 46.5t-2.5 59q5 33 21.5 60t40 47t53 31t61.5 11zM893 247q-22 0 -43.5 -8.5t-38.5 -22.5t-29 -34t-16 -42
q-3 -22 3 -41t18.5 -33.5t31.5 -22.5t41 -8t43 8t38.5 22.5t29.5 33.5t15 41q4 22 -2 42t-18.5 34t-31.5 22.5t-41 8.5zM900 289q32 0 58 -11t43 -31t24.5 -47t2.5 -60q-5 -32 -21 -59t-40 -46.5t-53.5 -30.5t-60.5 -11q-32 0 -57.5 11t-43 30.5t-25.5 46.5t-3 59
q5 33 21.5 60t40 47t53 31t61.5 11z" />
    <glyph glyph-name="guilsinglleft" unicode="&#x2039;" horiz-adv-x="277" 
d="M238 178l-33 -27l-119 169l172 169l25 -27l-143 -142z" />
    <glyph glyph-name="guilsinglright" unicode="&#x203a;" horiz-adv-x="277" 
d="M239 320l-99 142l33 27l120 -169l-173 -169l-25 27z" />
    <glyph glyph-name="trademark" unicode="&#x2122;" horiz-adv-x="940" 
d="M652 754l86 -327h2l190 327h72l-66 -421h-42l60 379h-4l-225 -379h-2l-103 379h-4l-60 -379h-42l66 421h72zM491 712h-139l-60 -379h-42l60 379h-139l6 42h320z" />
    <glyph glyph-name="fraction" horiz-adv-x="129" 
d="M423 754l-569 -771l-29 18l569 771z" />
    <glyph glyph-name="fi" horiz-adv-x="475" 
d="M122 0h-45l67 420h-51l6 42h51l33 207q4 26 11.5 58t24.5 55q20 28 50 42t62 14q21 0 39 -7l-7 -41q-9 2 -17.5 4t-18.5 2q-29 0 -47 -13t-28.5 -33t-16 -44t-8.5 -46l-32 -198h116l-6 -42h-116zM462 657q17 0 27 -12t8 -29q-3 -17 -17 -29t-31 -12t-27 12t-7 29
q2 17 16 29t31 12zM380 0h-45l73 462h45z" />
    <glyph glyph-name="fl" horiz-adv-x="439" 
d="M362 0h-45l131 825h45zM122 0h-45l67 420h-51l6 42h51l33 207q4 26 11.5 58t24.5 55q20 28 50 42t62 14q21 0 39 -7l-7 -41q-9 2 -17.5 4t-18.5 2q-29 0 -47 -13t-28.5 -33t-16 -44t-8.5 -46l-32 -198h116l-6 -42h-116z" />
    <glyph glyph-name="breve" horiz-adv-x="434" 
d="M226 674q5 -33 30 -47t58 -14t62.5 14t45.5 47h43q-7 -26 -23.5 -46t-38 -33.5t-46.5 -20t-50 -6.5t-48 6.5t-40 20t-27.5 33.5t-9.5 46h44z" />
    <glyph glyph-name="dotaccent" horiz-adv-x="313" 
d="M264 674q17 0 26.5 -11.5t6.5 -28.5q-2 -17 -15.5 -28.5t-30.5 -11.5t-26.5 11.5t-7.5 28.5q3 17 16.5 28.5t30.5 11.5z" />
    <glyph glyph-name="ring" horiz-adv-x="324" 
d="M269 674q-20 0 -36 -13.5t-19 -33.5t8.5 -33.5t31.5 -13.5t35.5 13.5t18.5 33.5t-8 33.5t-31 13.5zM275 714q36 0 57.5 -25.5t15.5 -61.5q-3 -18 -12 -34t-22.5 -27.5t-30.5 -18.5t-35 -7q-36 0 -57.5 25.5t-16.5 61.5q3 18 12.5 34t23 27.5t30.5 18.5t35 7z" />
    <glyph glyph-name="hungarumlaut" horiz-adv-x="446" 
d="M481 695l-147 -145l-35 17l124 147zM348 695l-147 -145l-35 17l124 147z" />
    <glyph glyph-name="ogonek" horiz-adv-x="321" 
d="M196 2v-2q-12 -8 -27.5 -20t-29.5 -25.5t-24 -29t-13 -30.5q-5 -30 13 -44.5t46 -14.5q15 0 30 3.5t30 8.5l-17 -44q-14 -4 -26.5 -6.5t-26.5 -2.5q-21 0 -39.5 6.5t-31.5 19t-19.5 30.5t-2.5 40q3 18 12 34t22.5 30.5t29.5 26t31 20.5h43z" />
    <glyph glyph-name="caron" horiz-adv-x="426" 
d="M302 559l-122 107l43 28l88 -76l114 76l31 -28z" />
    <glyph glyph-name="Lslash" horiz-adv-x="327" 
d="M137 354l-90 -57l8 49l90 57l55 351h48l-50 -318l142 89l-8 -49l-142 -89l-54 -342h192l-7 -45h-240z" />
    <glyph glyph-name="dotlessi" horiz-adv-x="234" 
d="M139 0h-45l73 462h45z" />
    <glyph glyph-name="lslash" horiz-adv-x="229" 
d="M154 391l-84 -54l8 45l83 54l62 389h45l-57 -357l84 53l-8 -45l-83 -53l-67 -423h-45z" />
    <glyph glyph-name="minus" 
d="M98 280h512l-7 -48h-512z" />
    </font>
</defs>
</svg>
