<?xml version="1.0" standalone="no"?>
<!DOCTYPE svg PUBLIC "-//W3C//DTD SVG 1.1//EN" "http://www.w3.org/Graphics/SVG/1.1/DTD/svg11.dtd" >
<svg xmlns="http://www.w3.org/2000/svg" xmlns:xlink="http://www.w3.org/1999/xlink" version="1.1">
<metadata>
Created by FontForge 20170731 at Sat Jul 28 00:24:30 2001
 By Aleksey,,,
Copyright (c) 1987, 1991, 1993 Adobe Systems Incorporated.  All Rights Reserved.Futura is a registered trademark of Fundicion Tipografica Neufville S. A.
</metadata>
<defs>
<font id="FuturaLT-Light" horiz-adv-x="620" >
  <font-face 
    font-family="Futura LT Light"
    font-weight="400"
    font-stretch="normal"
    units-per-em="1000"
    panose-1="2 0 5 4 3 0 0 2 0 3"
    ascent="800"
    descent="-200"
    x-height="462"
    cap-height="754"
    bbox="-175 -302 1127 971"
    underline-thickness="50"
    underline-position="-175"
    unicode-range="U+0020-2122"
  />
<missing-glyph horiz-adv-x="500" 
d="M442 8v496h-384v-496h384zM50 512h400v-512h-400v512z" />
    <glyph glyph-name=".notdef" horiz-adv-x="500" 
d="M442 8v496h-384v-496h384zM50 512h400v-512h-400v512z" />
    <glyph glyph-name=".null" horiz-adv-x="0" 
 />
    <glyph glyph-name="nonmarkingreturn" horiz-adv-x="310" 
 />
    <glyph glyph-name="space" unicode=" " horiz-adv-x="310" 
 />
    <glyph glyph-name="exclam" unicode="!" horiz-adv-x="320" 
d="M136 754h48v-611h-48v611zM160 72q17 0 29 -12t12 -29t-12 -29t-29 -12t-29 12t-12 29t12 29t29 12z" />
    <glyph glyph-name="quotedbl" unicode="&#x22;" horiz-adv-x="278" 
d="M220 754l-11 -240h-27l-10 240h48zM106 754l-11 -240h-27l-10 240h48z" />
    <glyph glyph-name="numbersign" unicode="#" 
d="M259 438l-24 -162h136l24 162h-136zM536 228h-126l-37 -228h-46l36 228h-135l-33 -228h-48l33 228h-121v48h128l23 162h-123v48h130l32 212h50l-32 -212h136l32 212h50l-33 -212h110v-48h-118l-26 -162h118v-48z" />
    <glyph glyph-name="dollar" unicode="$" 
d="M302 384q-31 15 -62 31.5t-56.5 38t-41.5 50t-16 69.5q0 40 12.5 74t36 59t56 40t71.5 18v105h45v-107q48 -6 89 -33.5t64 -70.5l-37 -30q-19 32 -48.5 57.5t-67.5 30.5v-300q35 -18 69 -35t61 -39.5t43.5 -54t16.5 -77.5q0 -41 -15.5 -77t-41.5 -65t-60.5 -49t-72.5 -27
v-113h-45v111q-79 2 -135.5 45t-83.5 118l41 19q11 -29 28.5 -54t40 -43.5t50 -28.5t59.5 -8v346zM302 716q-27 0 -50.5 -12t-41 -32t-27 -45t-9.5 -52q0 -29 12 -50t30.5 -36.5t41 -28t44.5 -23.5v279zM347 40q30 7 56 23.5t45 39.5t30 51t11 60q0 30 -13.5 53t-34 40
t-45.5 30.5t-49 24.5v-322z" />
    <glyph glyph-name="percent" unicode="%" horiz-adv-x="664" 
d="M484 247q-22 0 -42 -8.5t-35 -22.5t-24 -34t-9 -42t9 -41t24 -33.5t35 -22.5t42 -8t42 8t35 22.5t24 33.5t9 41t-9 42t-24 34t-35 22.5t-42 8.5zM484 289q32 0 59.5 -11t48 -31t32.5 -47t12 -60q0 -32 -12 -59t-32.5 -46.5t-48.5 -30.5t-59 -11q-32 0 -59.5 11t-48 30.5
t-32.5 46.5t-12 59q0 33 12 60t32.5 47t48 31t59.5 11zM571 754l-448 -771l-31 18l446 770zM180 719q-22 0 -42 -8.5t-35 -22.5t-24 -34t-9 -42t9 -41t24 -33.5t35 -22.5t42 -8t42 8t35 22.5t24 33.5t9 41t-9 42t-24 34t-35 22.5t-42 8.5zM180 761q32 0 59.5 -11t48 -31
t32.5 -47t12 -60q0 -32 -12 -59t-32.5 -46.5t-48.5 -30.5t-59 -11q-32 0 -59.5 11t-48 30.5t-32.5 46.5t-12 59q0 33 12 60t32.5 47t48 31t59.5 11z" />
    <glyph glyph-name="ampersand" unicode="&#x26;" horiz-adv-x="642" 
d="M231 388q-27 -17 -55.5 -37t-52 -44t-38.5 -53t-15 -65q0 -32 11 -61t30.5 -50.5t47 -34.5t60.5 -13t66.5 12.5t65.5 32t62 43t56 45.5l-190 257zM497 125q-32 -27 -65.5 -52t-68.5 -44.5t-71 -31.5t-73 -12q-42 0 -78 16t-62.5 43t-41.5 63t-15 77q0 49 21.5 89t54.5 73
t73.5 60.5t79.5 51.5q-13 18 -27 37t-25.5 39.5t-19 42.5t-7.5 46q0 30 12 56.5t32 46t46.5 31t56.5 11.5q29 0 54 -11t43.5 -30t29 -44.5t10.5 -54.5q0 -32 -12 -58t-31.5 -48.5t-45 -41.5t-52.5 -38l186 -254l96 105l37 -20l-105 -120l115 -153h-52zM316 723
q-21 0 -38.5 -9t-30 -23.5t-20 -33.5t-7.5 -39t6.5 -38t16.5 -35t22 -33t22 -33q20 16 41.5 30.5t39 31.5t29 38t11.5 50q0 19 -7 36t-19.5 30t-29.5 20.5t-36 7.5z" />
    <glyph glyph-name="quotesingle" unicode="'" horiz-adv-x="222" 
d="M135 754l-11 -240h-27l-10 240h48z" />
    <glyph glyph-name="parenleft" unicode="(" horiz-adv-x="240" 
d="M174 754q-31 -109 -47 -224.5t-16 -234.5q0 -110 16 -222.5t47 -224.5l-37 -25q-19 49 -32.5 109t-22 123.5t-12.5 125.5t-4 114q0 53 3.5 116.5t12 129t22 127.5t33.5 112z" />
    <glyph glyph-name="parenright" unicode=")" horiz-adv-x="240" 
d="M103 780q20 -50 33.5 -112t22 -127.5t12 -129t3.5 -116.5q0 -52 -4 -114t-12.5 -125.5t-22 -123.5t-32.5 -109l-37 25q31 112 47 224.5t16 222.5q0 119 -16 234.5t-47 224.5z" />
    <glyph glyph-name="asterisk" unicode="*" horiz-adv-x="619" 
d="M285 754h49l-4 -150l142 50l15 -47l-144 -43l92 -119l-40 -29l-85 124l-86 -124l-39 28l91 120l-144 43l15 47l142 -50z" />
    <glyph glyph-name="plus" unicode="+" 
d="M286 512h48v-232h232v-48h-232v-232h-48v232h-232v48h232v232z" />
    <glyph glyph-name="comma" unicode="," horiz-adv-x="310" 
d="M198 60l-83 -226l-30 11l68 229z" />
    <glyph glyph-name="hyphenminus" unicode="-" horiz-adv-x="190" 
d="M190 342v-45h-190v45h190z" />
    <glyph glyph-name="period" unicode="." horiz-adv-x="310" 
d="M155 72q17 0 29 -12t12 -29t-12 -29t-29 -12t-29 12t-12 29t12 29t29 12z" />
    <glyph glyph-name="slash" unicode="/" horiz-adv-x="640" 
d="M605 807l-533 -949l-37 19l535 948z" />
    <glyph glyph-name="zero" unicode="0" 
d="M310 35q60 0 103 35t70.5 87.5t40 113t12.5 111.5q0 45 -12.5 103t-40 110t-70.5 88t-103 36t-103 -36t-70.5 -88t-40 -110t-12.5 -103q0 -51 12.5 -111.5t40 -113t70.5 -87.5t103 -35zM310 764q47 0 85.5 -17.5t69 -46.5t53 -67.5t37 -81t22 -86.5t7.5 -83t-7 -83
t-21.5 -88t-36.5 -83.5t-52.5 -70.5t-69.5 -49t-87 -18t-87 18t-69.5 49t-52.5 70.5t-36.5 83.5t-21.5 88t-7 83t7.5 83t22 86.5t37 81t53 67.5t69 46.5t85.5 17.5z" />
    <glyph glyph-name="one" unicode="1" 
d="M189 709l23 45h144v-754h-48v709h-119z" />
    <glyph glyph-name="two" unicode="2" 
d="M534 45v-45h-465l281 309q21 24 45.5 51.5t45.5 57.5t34.5 62.5t13.5 65.5q0 37 -14 68.5t-38.5 54.5t-57 36.5t-68.5 13.5q-39 0 -72 -13.5t-57 -37t-37 -56t-12 -71.5h-48q2 41 10.5 76t36.5 67q33 37 81.5 58.5t97.5 21.5q47 0 88 -17t72 -46.5t48.5 -70t17.5 -87.5
q0 -38 -13 -72.5t-33.5 -66t-46 -60t-49.5 -55.5l-219 -244h358z" />
    <glyph glyph-name="three" unicode="3" 
d="M302 415q33 1 62.5 12.5t51 32t34 49t12.5 63.5q0 31 -12 57.5t-32 46.5t-47.5 31.5t-57.5 11.5q-66 0 -104 -39t-42 -104h-48q6 86 56.5 137t138.5 51q40 0 76 -15t62.5 -41t42 -61.5t15.5 -76.5q0 -58 -30 -105t-83 -70q28 -11 51 -30t39.5 -43t25 -52t8.5 -58
q0 -47 -17 -87.5t-46.5 -70.5t-70 -47t-87.5 -17q-42 0 -80.5 14t-67 40t-45 61.5t-16.5 79.5h48q3 -33 15.5 -60.5t33 -47.5t48.5 -31t63 -11q36 0 67.5 14t55 38t37.5 55.5t14 66.5q0 37 -13.5 66.5t-37 50.5t-54.5 32.5t-66 11.5v45z" />
    <glyph glyph-name="four" unicode="4" 
d="M419 634h-6l-313 -440v-6h319v446zM573 188v-45h-106v-143h-48v143h-407v6l449 631h6v-592h106z" />
    <glyph glyph-name="five" unicode="5" 
d="M279 709l-63 -204q14 5 28.5 6.5t28.5 1.5q54 0 101 -20t81.5 -55t54 -81.5t19.5 -100.5q0 -58 -21 -106.5t-58 -84t-86.5 -55.5t-106.5 -20q-69 0 -128 33t-95 92l44 18q29 -45 77.5 -71.5t102.5 -26.5q47 0 88 17t71 46.5t47 70t17 88.5q0 45 -17.5 83.5t-47.5 67
t-70 44.5t-85 16q-33 0 -60 -8.5t-55 -25.5l98 320h287v-45h-252z" />
    <glyph glyph-name="six" unicode="6" 
d="M310 35q45 0 85 17t70 47t47.5 70t17.5 85t-17.5 85t-47.5 69.5t-70 47t-85 17.5t-85 -17.5t-70 -47t-47.5 -69.5t-17.5 -85t17.5 -85t47.5 -70t70 -47t85 -17zM379 735l-166 -235l2 -2q48 20 100 20q54 0 102 -21t84 -57.5t56.5 -84.5t20.5 -102q0 -51 -20.5 -97.5
t-54.5 -83.5q-38 -42 -88 -62t-106 -20q-55 0 -103.5 20.5t-85 55.5t-57.5 83t-21 104q0 48 13.5 87.5t41.5 78.5l243 345z" />
    <glyph glyph-name="seven" unicode="7" 
d="M70 709v45h547l-540 -762l-37 29l488 688h-458z" />
    <glyph glyph-name="eight" unicode="8" 
d="M310 719q-32 0 -60 -12t-49 -33t-33 -49t-12 -59q0 -32 12 -59.5t33 -48t49 -32.5t60 -12q31 0 59 12t49 32.5t33.5 48t12.5 59.5q0 31 -12.5 59t-33.5 49t-49 33t-59 12zM310 -10q-44 0 -84 15.5t-70 43t-47.5 65.5t-17.5 83q0 137 123 196q-49 24 -77.5 71t-28.5 101
q0 43 15.5 79.5t42.5 63t64 41.5t80 15t80 -15t64 -41.5t42.5 -63t15.5 -79.5q0 -54 -28.5 -101t-77.5 -71q123 -59 123 -196q0 -45 -17.5 -83t-47.5 -65.5t-70 -43t-84 -15.5zM310 369q-35 0 -66 -13t-54.5 -35.5t-37 -53t-13.5 -65.5t13.5 -65.5t37 -53t54.5 -35.5t66 -13
q34 0 65.5 13t54.5 35.5t37 53t14 65.5t-14 65.5t-37 53t-54.5 35.5t-65.5 13z" />
    <glyph glyph-name="nine" unicode="9" 
d="M311 719q-45 0 -85 -17t-70.5 -46.5t-48 -69.5t-17.5 -85t17.5 -84.5t48 -69.5t70.5 -47t85 -17t85 17t69.5 47t47 69.5t17.5 84.5t-17.5 85t-47 69.5t-69.5 46.5t-85 17zM241 21l167 235l-2 2q-24 -10 -48.5 -15t-52.5 -5q-54 0 -102 21t-83.5 57t-56.5 84t-21 102
q0 55 21.5 103t58.5 83t86 55.5t103 20.5q57 0 105.5 -20.5t84.5 -56.5t56.5 -84.5t20.5 -105.5q0 -46 -14.5 -85t-40.5 -76l-243 -344z" />
    <glyph glyph-name="colon" unicode=":" horiz-adv-x="310" 
d="M155 472q17 0 29 -12t12 -29t-12 -29t-29 -12t-29 12t-12 29t12 29t29 12zM155 72q17 0 29 -12t12 -29t-12 -29t-29 -12t-29 12t-12 29t12 29t29 12z" />
    <glyph glyph-name="semicolon" unicode=";" horiz-adv-x="310" 
d="M161 472q17 0 29 -12t12 -29t-12 -29t-29 -12t-29 12t-12 29t12 29t29 12zM198 60l-83 -226l-30 11l68 229z" />
    <glyph glyph-name="less" unicode="&#x3c;" 
d="M566 41v-46l-512 235v53l512 223v-46l-460 -204z" />
    <glyph glyph-name="equal" unicode="=" 
d="M566 147h-512v48h512v-48zM566 317h-512v48h512v-48z" />
    <glyph glyph-name="greater" unicode="&#x3e;" 
d="M514 256l-460 204v46l512 -223v-53l-512 -235v46z" />
    <glyph glyph-name="question" unicode="?" horiz-adv-x="491" 
d="M243 72q17 0 29 -12t12 -29t-12 -29t-29 -12t-29 12t-12 29t12 29t29 12zM402 303q1 -34 -9.5 -63.5t-31 -51t-50 -34t-65.5 -12.5q-33 0 -61.5 11t-50 31t-34 47.5t-12.5 59.5q0 34 11 59.5t30 43.5t45 30t57 20t58 17t46.5 23.5t30.5 37.5t11 60q0 28 -9.5 53t-27 43.5
t-42 29.5t-54.5 11q-28 0 -52 -9.5t-41.5 -27t-27 -40.5t-9.5 -50q0 -14 1 -27t4 -26h-46q-3 16 -5 31.5t-2 32.5q0 36 14.5 65.5t39.5 51t57.5 33t67.5 11.5q40 0 73.5 -13.5t57 -37.5t36.5 -57t13 -72q0 -42 -12 -72t-33.5 -50.5t-52.5 -34t-68 -22.5q-24 -6 -46 -13
t-39 -19t-27.5 -30.5t-10.5 -48.5q0 -47 31.5 -77t80.5 -30q25 0 45 9.5t33.5 26t20.5 37t7 43.5h48z" />
    <glyph glyph-name="at" unicode="@" horiz-adv-x="800" 
d="M566 588h44l-103 -324q-4 -13 -7 -26t-1 -23t11.5 -16t30.5 -6q31 0 62.5 24t57 61t41.5 81.5t16 85.5q0 62 -26 113t-68 87.5t-96 56.5t-111 20q-69 0 -130 -28.5t-106.5 -76.5t-72 -111.5t-26.5 -132.5t27.5 -131t73.5 -108.5t107 -74t129 -27.5q42 0 82 8.5t75.5 25.5
t65 42.5t50.5 59.5h56q-21 -40 -53.5 -72.5t-74.5 -56t-93 -36.5t-108 -13q-80 0 -149.5 30.5t-120.5 83.5t-80 124t-29 152q0 80 30 150t81.5 122t119.5 82t144 30q72 0 135 -24t109.5 -67t73.5 -102.5t27 -129.5q0 -60 -21.5 -113t-55 -92.5t-75 -62t-81.5 -22.5
q-26 0 -46.5 12.5t-28.5 36.5q-31 -26 -64.5 -37.5t-65.5 -11.5t-57 11.5t-42 31t-25.5 46.5t-8.5 58q0 51 17 106t48.5 100.5t76 74.5t100.5 29q35 0 67 -17.5t53 -49.5zM337 193q24 1 47 12t41.5 28t32.5 38t20 41l47 147q4 13 -1 31.5t-18.5 35.5t-34.5 28.5t-48 11.5
q-39 0 -74 -26.5t-61.5 -66t-41.5 -85.5t-15 -84q0 -22 7 -42t20.5 -36t33 -25t45.5 -8z" />
    <glyph glyph-name="A" unicode="A" horiz-adv-x="641" 
d="M321 657l-148 -364h295zM155 248l-101 -248h-49l316 779l315 -779h-49l-101 248h-331z" />
    <glyph glyph-name="B" unicode="B" horiz-adv-x="565" 
d="M129 412h83q38 0 70.5 2.5t64.5 25.5t44 52.5t12 68.5q0 37 -15 70.5t-47 53.5q-29 18 -62.5 21t-66.5 3h-83v-297zM81 0v754h151q43 0 82.5 -7t73.5 -37q35 -30 49 -70.5t14 -85.5q0 -52 -21 -90t-66 -64q35 -7 63.5 -24t49 -42t32 -56.5t11.5 -67.5q0 -46 -17.5 -86
t-52.5 -70q-40 -34 -82.5 -44t-93.5 -10h-193zM129 45h115q40 0 79.5 3t74.5 26t54.5 57.5t19.5 76.5t-20 79t-58 56q-35 17 -78 20.5t-81 3.5h-106v-322z" />
    <glyph glyph-name="C" unicode="C" horiz-adv-x="739" 
d="M680 600q-22 27 -51 48.5t-62.5 37.5t-69 24.5t-70.5 8.5q-71 0 -133 -28t-109 -76t-74 -111t-27 -132q0 -66 26.5 -126t74.5 -107q48 -45 111.5 -74.5t130.5 -29.5q33 0 68.5 8.5t69.5 23.5t64 36t51 47v-66q-54 -45 -117.5 -69.5t-133.5 -24.5q-79 0 -150 30.5t-125 83
t-86 123t-32 149.5q0 80 31.5 151t85.5 123.5t125.5 83t151.5 30.5q69 0 134 -25.5t116 -72.5v-66z" />
    <glyph glyph-name="D" unicode="D" horiz-adv-x="652" 
d="M216 45q74 0 136.5 19t116.5 72q48 48 74 110t26 130q0 72 -27.5 137t-81.5 114t-113.5 65.5t-130.5 16.5h-87v-664h87zM81 754h136q41 0 78.5 -4t72 -14.5t66.5 -29t63 -47.5q60 -56 90 -129t30 -154q0 -78 -29.5 -149.5t-86.5 -126.5q-62 -60 -131 -80t-153 -20h-136
v754z" />
    <glyph glyph-name="E" unicode="E" horiz-adv-x="507" 
d="M129 709v-274h304v-45h-304v-345h312v-45h-360v754h360v-45h-312z" />
    <glyph glyph-name="F" unicode="F" horiz-adv-x="444" 
d="M129 709v-274h249v-45h-249v-390h-48v754h304v-45h-256z" />
    <glyph glyph-name="G" unicode="G" horiz-adv-x="824" 
d="M788 363q1 -36 -2 -69t-11.5 -64.5t-24.5 -61t-41 -56.5q-54 -59 -130 -90.5t-156 -31.5q-78 0 -148.5 30.5t-123.5 83t-84 122.5t-31 148q0 81 31 152t84.5 124t125 83.5t152.5 30.5q103 0 185 -47.5t142 -128.5l-39 -31q-51 75 -125 118.5t-166 43.5q-69 0 -131 -28
t-109 -75t-74.5 -109t-27.5 -130q0 -70 27 -132t73.5 -108.5t108.5 -74t133 -27.5q61 0 118 22.5t104 60.5q49 42 69.5 90t22.5 110h-270v45h318z" />
    <glyph glyph-name="H" unicode="H" horiz-adv-x="716" 
d="M587 434v320h48v-754h-48v389h-458v-389h-48v754h48v-320h458z" />
    <glyph glyph-name="I" unicode="I" horiz-adv-x="210" 
d="M129 0h-48v754h48v-754z" />
    <glyph glyph-name="J" unicode="J" horiz-adv-x="218" 
d="M137 754v-740q0 -35 -5.5 -66.5t-20 -55t-40.5 -37t-67 -13.5q-42 0 -75 22.5t-50 59.5l36 27q13 -27 38 -45.5t55 -18.5q28 0 44 12t24.5 30.5t10.5 41t2 43.5v740h48z" />
    <glyph glyph-name="K" unicode="K" horiz-adv-x="569" 
d="M487 754h64l-369 -363l392 -391h-63l-362 360l-20 -20v-340h-48v754h48v-352z" />
    <glyph glyph-name="L" unicode="L" horiz-adv-x="327" 
d="M129 45h192v-45h-240v754h48v-709z" />
    <glyph glyph-name="M" unicode="M" horiz-adv-x="897" 
d="M713 624h-2l-263 -649l-262 649h-2l-129 -624h-46l162 779l277 -686l278 686l162 -779h-46z" />
    <glyph glyph-name="N" unicode="N" horiz-adv-x="843" 
d="M762 -25l-633 673v-648h-48v764l633 -668v658h48v-779z" />
    <glyph glyph-name="O" unicode="O" horiz-adv-x="854" 
d="M427 719q-71 0 -133 -27.5t-109 -74t-74 -108.5t-27 -132t27 -132t74 -108.5t109 -74t133 -27.5q70 0 132.5 27.5t109 74t74 109t27.5 131.5q0 70 -27.5 132t-74 108.5t-109 74t-132.5 27.5zM427 764q79 0 150.5 -30.5t124.5 -83.5t84.5 -123.5t31.5 -149.5
q0 -80 -31.5 -150t-84.5 -123t-124.5 -83.5t-150.5 -30.5q-80 0 -151 30.5t-124 83.5t-84.5 123t-31.5 150q0 79 31 149.5t84.5 123.5t124.5 83.5t151 30.5z" />
    <glyph glyph-name="P" unicode="P" horiz-adv-x="472" 
d="M216 403q37 0 70 7.5t62 33.5q49 45 49 113q0 35 -14 68t-43 54q-29 22 -63 26t-69 4h-79v-306h87zM129 0h-48v754h133q45 0 86.5 -7t76.5 -37q35 -29 51.5 -69.5t16.5 -85.5q0 -41 -15.5 -82t-47.5 -67q-35 -30 -79 -39t-89 -9h-85v-358z" />
    <glyph glyph-name="Q" unicode="Q" horiz-adv-x="854" 
d="M674 80q-51 -42 -116 -66t-131 -24q-81 0 -152 30t-124 82.5t-84 123t-31 151.5q0 80 31 150.5t84.5 123t125 83t151.5 30.5q79 0 150 -30.5t124 -82.5t84.5 -122t31.5 -149q0 -80 -28.5 -146.5t-81.5 -126.5l99 -107h-65zM673 143q45 49 71 104.5t26 123.5
q0 71 -26.5 134t-72.5 110.5t-108.5 75.5t-134.5 28q-70 0 -132.5 -27.5t-109.5 -74t-74.5 -108.5t-27.5 -132q0 -71 27.5 -133t74.5 -108.5t110 -73.5t134 -27q57 0 111 22t99 57l-188 195h68z" />
    <glyph glyph-name="R" unicode="R" horiz-adv-x="488" 
d="M190 402q35 0 69 5t63 30q27 22 40 53.5t13 65.5q0 42 -19.5 80t-60.5 56q-30 14 -66 15.5t-69 1.5h-31v-307h61zM454 0h-55l-246 357h-24v-357h-48v754h94q46 0 90 -5t82 -33q41 -29 58.5 -71.5t17.5 -90.5q0 -49 -16 -86.5t-45 -62t-68.5 -37t-86.5 -11.5z" />
    <glyph glyph-name="S" unicode="S" horiz-adv-x="544" 
d="M430 630q-26 41 -62.5 65t-90.5 24q-30 0 -56 -11.5t-45 -31t-30 -45.5t-11 -56t12.5 -51.5t32.5 -38t44 -28.5t47 -23l144 -75q43 -27 64.5 -63t21.5 -87q0 -47 -19.5 -87t-52.5 -69.5t-75.5 -46t-88.5 -16.5q-79 0 -137.5 44.5t-84.5 117.5l42 19q24 -60 68.5 -98
t113.5 -38q37 0 71 13.5t59.5 37.5t40.5 56.5t15 70.5q0 32 -14.5 55.5t-37 41t-49.5 31l-51 25.5l-136 72q-38 23 -58 56.5t-20 78.5q0 42 14.5 77t40 60.5t61 39.5t77.5 14q57 0 107 -28.5t77 -77.5z" />
    <glyph glyph-name="T" unicode="T" horiz-adv-x="450" 
d="M249 0h-48v709h-195v45h438v-45h-195v-709z" />
    <glyph glyph-name="U" unicode="U" horiz-adv-x="660" 
d="M538 754h48v-470q0 -29 -1 -56t-5.5 -52.5t-15 -49.5t-29.5 -48q-38 -44 -93 -66t-112 -22t-112 22t-93 66q-19 24 -29.5 48t-15 49.5t-5.5 52.5t-1 56v470h48v-456q0 -26 0.5 -51.5t4.5 -50t11.5 -47t22.5 -41.5q14 -18 34 -31.5t42.5 -23t46.5 -14t46 -4.5t46 4.5
t46.5 14t42.5 23t34 31.5q15 19 22.5 41.5t11.5 47t4.5 50t0.5 51.5v456z" />
    <glyph glyph-name="V" unicode="V" horiz-adv-x="555" 
d="M277 110h2l223 644h48l-274 -779l-271 779h48z" />
    <glyph glyph-name="W" unicode="W" horiz-adv-x="1105" 
d="M272 106l282 686l282 -686l209 648h48l-254 -779l-288 697l-287 -697l-252 779h48z" />
    <glyph glyph-name="X" unicode="X" horiz-adv-x="494" 
d="M20 754h53l173 -324l173 324h53l-197 -369l207 -385h-52l-184 341l-182 -341h-52l206 385z" />
    <glyph glyph-name="Y" unicode="Y" horiz-adv-x="559" 
d="M4 754h53l222 -382l222 382h53l-251 -432v-322h-48v322z" />
    <glyph glyph-name="Z" unicode="Z" horiz-adv-x="568" 
d="M543 45v-45h-531l460 709h-416v45h500l-460 -709h447z" />
    <glyph glyph-name="bracketleft" unicode="[" horiz-adv-x="300" 
d="M113 -152h122v-51h-170v957h170v-51h-122v-855z" />
    <glyph glyph-name="backslash" unicode="\" horiz-adv-x="640" 
d="M70 825l535 -806l-37 -19l-533 807z" />
    <glyph glyph-name="bracketright" unicode="]" horiz-adv-x="300" 
d="M187 703h-122v51h170v-957h-170v51h122v855z" />
    <glyph glyph-name="asciicircum" unicode="^" 
d="M54 301l230 453h52l230 -453h-46l-210 408l-209 -408h-47z" />
    <glyph glyph-name="underscore" unicode="_" horiz-adv-x="500" 
d="M0 -125v50h500v-50h-500z" />
    <glyph glyph-name="grave" unicode="`" horiz-adv-x="313" 
d="M136 714l101 -147l-38 -17l-124 145z" />
    <glyph glyph-name="a" unicode="a" horiz-adv-x="560" 
d="M483 0h-45v83h-2q-13 -22 -32.5 -39.5t-43 -29.5t-49.5 -18t-51 -6q-53 0 -95 19t-71.5 52t-45.5 77.5t-16 95.5t16 94.5t45 75.5t71 50t94 18q54 0 101.5 -23t76.5 -67h2v80h45v-462zM256 430q-40 0 -73 -16.5t-56.5 -44t-36.5 -63t-13 -72.5q0 -40 12.5 -76.5
t36.5 -64.5t57.5 -44.5t75.5 -16.5q44 0 78 16.5t57 45t35 66t12 79.5q0 40 -13 75t-37.5 60.5t-58.5 40.5t-76 15z" />
    <glyph glyph-name="b" unicode="b" horiz-adv-x="560" 
d="M77 825h45v-443h2q29 44 76.5 67t101.5 23q52 0 93.5 -18t71 -50t45.5 -75.5t16 -94.5t-16 -95.5t-45.5 -77.5t-72 -52t-94.5 -19q-26 0 -51.5 6t-49 18t-43 29.5t-32.5 39.5h-2v-83h-45v825zM301 32q42 0 76 16.5t57.5 44.5t36 64.5t12.5 76.5q0 38 -13 73.5t-37 62.5
t-57 43.5t-73 16.5q-44 0 -78 -15.5t-57.5 -42t-36 -62.5t-12.5 -77t12.5 -77t36 -64t57 -44t76.5 -16z" />
    <glyph glyph-name="c" unicode="c" horiz-adv-x="477" 
d="M431 355q-33 36 -73 55.5t-90 19.5q-41 0 -76 -16t-60.5 -43.5t-40 -63.5t-14.5 -75t14.5 -75.5t40 -64t60 -44t75.5 -16.5q50 0 94 22.5t76 60.5v-61q-35 -31 -78 -47.5t-90 -16.5q-51 0 -94.5 19t-75 51.5t-49.5 76.5t-18 95q0 50 18 94t50 76.5t75.5 51t94.5 18.5
q45 0 85.5 -14t75.5 -43v-60z" />
    <glyph glyph-name="d" unicode="d" horiz-adv-x="560" 
d="M438 83h-2q-13 -22 -32.5 -39.5t-43 -29.5t-49.5 -18t-51 -6q-53 0 -95 19t-71.5 52t-45.5 77.5t-16 95.5t16 94.5t45 75.5t71 50t94 18q54 0 101.5 -23t76.5 -67h2v443h45v-825h-45v83zM259 32q44 0 78 16.5t57 45t35 66t12 79.5q0 40 -13 75t-37.5 60.5t-58.5 40.5
t-76 15q-40 0 -73 -16.5t-56.5 -44t-36.5 -63t-13 -72.5q0 -40 12.5 -76.5t36.5 -64.5t57.5 -44.5t75.5 -16.5z" />
    <glyph glyph-name="e" unicode="e" horiz-adv-x="510" 
d="M433 269q-4 32 -18.5 61t-38 51.5t-53.5 35.5t-66 13q-35 0 -66.5 -13t-55.5 -35t-39.5 -51t-18.5 -62h356zM77 227q-1 -44 12.5 -80t38.5 -61.5t59.5 -39.5t74.5 -14q54 0 96 29t67 76l38 -22q-32 -60 -85 -92.5t-122 -32.5q-51 0 -92.5 19.5t-71 52.5t-45 77t-15.5 93
q0 48 16 91.5t45.5 76.5t70.5 52.5t92 19.5q52 0 93.5 -19.5t70 -53t43.5 -78t15 -94.5h-401z" />
    <glyph glyph-name="f" unicode="f" horiz-adv-x="240" 
d="M122 0h-45v420h-51v42h51v207q0 26 2.5 58t15.5 55q16 28 43.5 42t59.5 14q22 0 40 -7v-41l-18 4t-19 2q-29 0 -45 -13t-23.5 -33t-9 -44t-1.5 -46v-198h116v-42h-116v-420z" />
    <glyph glyph-name="g" unicode="g" horiz-adv-x="567" 
d="M490 22q0 -54 -6.5 -102t-39.5 -94q-32 -45 -80.5 -67t-103.5 -22q-45 0 -85.5 13t-71.5 38.5t-49.5 62t-21.5 84.5h45q2 -36 17 -65t39.5 -49t56 -31t66.5 -11q44 0 83 16t65 53q27 40 34 84t7 91v57h-2q-31 -42 -79 -66t-101 -24q-50 0 -91.5 19.5t-71 53t-45.5 77.5
t-16 92q0 50 17 93.5t47.5 76t72.5 51.5t93 19q57 0 99.5 -23t74.5 -67h2v80h45v-440zM263 430q-40 0 -73 -16.5t-56.5 -44t-36.5 -63t-13 -72.5q0 -40 12.5 -76.5t36.5 -64.5t57.5 -44.5t75.5 -16.5q44 0 78 16.5t57 45t35 66t12 79.5q0 40 -13 75t-37.5 60.5t-58.5 40.5
t-76 15z" />
    <glyph glyph-name="h" unicode="h" horiz-adv-x="490" 
d="M122 825v-435h2q20 38 56 60t81 22t74 -13.5t46.5 -38.5t24.5 -60.5t7 -80.5v-279h-45v279q0 31 -3 58.5t-14.5 48t-33.5 32.5t-60 12q-44 0 -70.5 -18.5t-40.5 -47.5t-19 -65t-5 -71v-228h-45v825h45z" />
    <glyph glyph-name="i" unicode="i" horiz-adv-x="234" 
d="M117 657q17 0 29 -12t12 -29t-12 -29t-29 -12t-29 12t-12 29t12 29t29 12zM139 0h-45v462h45v-462z" />
    <glyph glyph-name="j" unicode="j" horiz-adv-x="234" 
d="M117 657q17 0 29 -12t12 -29t-12 -29t-29 -12t-29 12t-12 29t12 29t29 12zM139 -270h-45v732h45v-732z" />
    <glyph glyph-name="k" unicode="k" horiz-adv-x="427" 
d="M122 266l190 196h58l-194 -200l259 -262h-59l-229 231l-25 -26v-205h-45v825h45v-559z" />
    <glyph glyph-name="l" unicode="l" horiz-adv-x="199" 
d="M122 0h-45v825h45v-825z" />
    <glyph glyph-name="m" unicode="m" horiz-adv-x="725" 
d="M122 404h2q16 32 47.5 50t68.5 18q45 0 78.5 -21.5t51.5 -62.5q19 42 54.5 63t80.5 21t72.5 -14t43.5 -39t21.5 -58t5.5 -71v-290h-45v296q0 27 -3 51t-13.5 42.5t-30 29.5t-52.5 11q-36 0 -59 -14.5t-36.5 -37.5t-18.5 -52.5t-5 -59.5v-266h-45v285q0 27 -3.5 53
t-14.5 46.5t-31 33t-54 12.5q-36 0 -58.5 -17t-35 -43t-17 -57t-4.5 -59v-254h-45v462h45v-58z" />
    <glyph glyph-name="n" unicode="n" horiz-adv-x="490" 
d="M122 390h2q20 38 56 60t81 22t74 -13.5t46.5 -38.5t24.5 -60.5t7 -80.5v-279h-45v279q0 31 -3 58.5t-14.5 48t-33.5 32.5t-60 12q-44 0 -70.5 -18.5t-40.5 -47.5t-19 -65t-5 -71v-228h-45v462h45v-72z" />
    <glyph glyph-name="o" unicode="o" horiz-adv-x="547" 
d="M269 430q-41 0 -76.5 -16t-61 -43.5t-40 -64t-14.5 -76.5q0 -39 14.5 -75t40.5 -63.5t61 -43.5t76 -16q42 0 79 15t64 42t42.5 63t15.5 78q0 43 -15.5 79.5t-42.5 63.5t-63.5 42t-79.5 15zM272 472q51 0 95.5 -18.5t77 -50.5t51.5 -76.5t19 -95.5t-19 -95.5t-51.5 -76.5
t-77 -50.5t-95.5 -18.5q-50 0 -93.5 19t-76 52t-51.5 76.5t-19 92.5q0 50 18.5 94t51 77t76.5 52t94 19z" />
    <glyph glyph-name="p" unicode="p" horiz-adv-x="560" 
d="M122 379h2q13 22 32.5 39.5t43 29.5t49 18t51.5 6q53 0 95 -19.5t71.5 -52.5t45.5 -77.5t16 -95.5t-16 -94t-45 -75t-71 -50t-94 -18q-54 0 -101.5 22.5t-76.5 67.5h-2v-350h-45v732h45v-83zM301 430q-44 0 -78 -17t-57 -46t-35 -66.5t-12 -79.5q0 -41 13 -75.5t37 -59.5
t58 -39.5t76 -14.5q40 0 73.5 16t57 42.5t36.5 61.5t13 74q0 40 -12.5 76.5t-36 65t-57.5 45.5t-76 17z" />
    <glyph glyph-name="q" unicode="q" horiz-adv-x="560" 
d="M483 -270h-45v350h-2q-29 -45 -76.5 -67.5t-101.5 -22.5q-52 0 -94 18t-71 49.5t-45 75t-16 93.5q0 51 16 96t45.5 78t71.5 52.5t95 19.5q25 0 51 -6t49.5 -18t43 -29.5t32.5 -39.5h2v83h45v-732zM259 430q-44 0 -78 -17t-57 -46t-35 -66.5t-12 -79.5q0 -41 13 -75.5
t37 -59.5t58 -39.5t76 -14.5q40 0 73.5 16t57 42.5t36.5 61.5t13 74q0 40 -12.5 76.5t-36 65t-57.5 45.5t-76 17z" />
    <glyph glyph-name="r" unicode="r" horiz-adv-x="278" 
d="M122 402h2q14 32 38.5 51t61.5 19q14 0 25.5 -3t23.5 -8l-24 -40q-8 5 -15.5 7t-16.5 2q-38 0 -57.5 -21t-28 -51t-9 -63.5t-0.5 -58.5v-236h-45v462h45v-60z" />
    <glyph glyph-name="s" unicode="s" horiz-adv-x="375" 
d="M271 378q-11 24 -32.5 38t-48.5 14q-15 0 -29 -5.5t-25 -15.5t-18 -23t-7 -28q0 -28 16.5 -43.5t41.5 -26.5t54.5 -21t54.5 -25.5t41.5 -40.5t16.5 -67q0 -32 -11.5 -58.5t-32 -45.5t-47.5 -29.5t-58 -10.5q-58 0 -101.5 32.5t-57.5 89.5l44 14q13 -42 41 -68t74 -26
q44 0 74 30t30 74q0 21 -7.5 36t-20 25t-29 17t-33.5 13q-24 9 -48 19t-43.5 24.5t-31.5 35t-12 49.5q0 26 10.5 47.5t27.5 37t40 24t48 8.5q35 0 69 -21t49 -53z" />
    <glyph glyph-name="t" unicode="t" horiz-adv-x="209" 
d="M127 0h-45v420h-51v42h51v165h45v-165h81v-42h-81v-420z" />
    <glyph glyph-name="u" unicode="u" horiz-adv-x="472" 
d="M402 462v-277q0 -35 -3 -69.5t-25 -63.5q-24 -32 -61.5 -47t-76.5 -15t-76.5 15t-61.5 47q-22 29 -25 63.5t-3 69.5v277h45v-261q0 -33 3.5 -64t15.5 -54t36 -37t66 -14t66 14t36 37t15.5 54t3.5 64v261h45z" />
    <glyph glyph-name="v" unicode="v" horiz-adv-x="433" 
d="M218 81l164 381h46l-211 -487l-212 487h46z" />
    <glyph glyph-name="w" unicode="w" horiz-adv-x="752" 
d="M214 83l163 404l164 -404l160 379h46l-209 -487l-163 399l-162 -399l-208 487h46z" />
    <glyph glyph-name="x" unicode="x" horiz-adv-x="443" 
d="M20 462h54l147 -187l148 187h54l-172 -218l188 -244h-53l-165 212l-164 -212h-53l188 244z" />
    <glyph glyph-name="y" unicode="y" horiz-adv-x="460" 
d="M-7 462h47l197 -418l177 418h46l-310 -732h-46l111 262z" />
    <glyph glyph-name="z" unicode="z" horiz-adv-x="480" 
d="M473 42v-42h-470l378 420h-317v42h411l-377 -420h375z" />
    <glyph glyph-name="braceleft" unicode="{" horiz-adv-x="300" 
d="M41 299q17 12 30.5 23.5t23 24.5t14.5 29t5 38v176q0 43 6.5 73.5t23 50.5t44.5 29.5t71 10.5v-46q-17 0 -34 -2.5t-31 -11t-23 -24t-9 -42.5v-186q0 -38 -4.5 -63.5t-14 -43.5t-23 -31t-31.5 -25v-5q18 -12 31.5 -25t23 -31.5t14 -45.5t4.5 -66v-185q0 -27 9 -42.5
t23 -24t31 -11t34 -2.5v-44q-43 1 -71 11t-44.5 29.5t-23 49.5t-6.5 73v176q0 22 -5 38.5t-14.5 30.5t-23 26t-30.5 24v44z" />
    <glyph glyph-name="bar" unicode="|" horiz-adv-x="320" 
d="M136 786h48v-1000h-48v1000z" />
    <glyph glyph-name="braceright" unicode="}" horiz-adv-x="300" 
d="M259 255q-35 -25 -54 -50.5t-19 -68.5v-176q0 -43 -6.5 -73t-23 -49.5t-44.5 -29.5t-71 -11v44q16 0 33.5 2.5t31.5 11t23 24t9 42.5v185q0 39 4.5 66t14 45.5t23 31.5t31.5 25v5q-18 12 -31.5 25t-23 31t-14 43.5t-4.5 63.5v186q0 27 -9 42.5t-23 24t-31.5 11t-33.5 2.5
v46q43 -1 71 -10.5t44.5 -29.5t23 -50.5t6.5 -73.5v-176q0 -22 5 -38t14.5 -29t23 -24.5t30.5 -23.5v-44z" />
    <glyph glyph-name="asciitilde" unicode="~" 
d="M201 314q27 0 57.5 -11t59.5 -25q30 -14 56.5 -27t46.5 -13q34 0 56.5 23.5t40.5 56.5l48 -23q-13 -20 -28 -39.5t-33 -35t-39 -25t-46 -9.5q-27 0 -54.5 12t-54.5 26q-28 14 -55.5 26t-54.5 12q-34 0 -57 -22t-43 -52l-47 23q13 16 27.5 34t32.5 33.5t39 25.5t48 10z
" />
    <glyph glyph-name="Euro" 
d="M611 685l-15 -52q-41 47 -85 66.5t-112 19.5q-103 0 -172 -70q-72 -74 -87 -207h399l-14 -45h-389v-25q0 -13 0.5 -25t1.5 -25h364l-14 -45h-343q21 -107 84 -172q70 -70 175 -70q75 0 119 19q32 13 73 51v-58q-44 -33 -83 -46q-39 -11 -107 -11q-128 0 -210 82
q-78 78 -100 205h-88l14 45h68q-1 14 -1.5 27t-0.5 27v21h-80l14 45h70q16 139 95 227q86 95 217 95q125 0 207 -79z" />
    <glyph glyph-name="Euro" unicode="&#x20ac;" 
d="M611 685l-15 -52q-41 47 -85 66.5t-112 19.5q-103 0 -172 -70q-72 -74 -87 -207h399l-14 -45h-389v-25q0 -13 0.5 -25t1.5 -25h364l-14 -45h-343q21 -107 84 -172q70 -70 175 -70q75 0 119 19q32 13 73 51v-58q-44 -33 -83 -46q-39 -11 -107 -11q-128 0 -210 82
q-78 78 -100 205h-88l14 45h68q-1 14 -1.5 27t-0.5 27v21h-80l14 45h70q16 139 95 227q86 95 217 95q125 0 207 -79z" />
    <glyph glyph-name="Zcaron" horiz-adv-x="568" 
d="M296 816l-138 107l38 28l100 -76l102 76l36 -28zM543 45v-45h-531l460 709h-416v45h500l-460 -709h447z" />
    <glyph glyph-name="Zcaron" unicode="&#x17d;" horiz-adv-x="568" 
d="M296 816l-138 107l38 28l100 -76l102 76l36 -28zM543 45v-45h-531l460 709h-416v45h500l-460 -709h447z" />
    <glyph glyph-name="zcaron" horiz-adv-x="480" 
d="M265 559l-138 107l38 28l100 -76l102 76l36 -28zM473 42v-42h-470l378 420h-317v42h411l-377 -420h375z" />
    <glyph glyph-name="zcaron" unicode="&#x17e;" horiz-adv-x="480" 
d="M265 559l-138 107l38 28l100 -76l102 76l36 -28zM473 42v-42h-470l378 420h-317v42h411l-377 -420h375z" />
    <glyph glyph-name="nonbreakingspace" unicode="&#xa0;" horiz-adv-x="310" 
 />
    <glyph glyph-name="exclamdown" unicode="&#xa1;" horiz-adv-x="320" 
d="M184 -290h-48v611h48v-611zM160 472q17 0 29 -12t12 -29t-12 -29t-29 -12t-29 12t-12 29t12 29t29 12z" />
    <glyph glyph-name="cent" unicode="&#xa2;" 
d="M316 582q-36 -5 -66 -23t-52 -45t-34 -60.5t-12 -69.5t12 -69.5t34 -60.5t52 -45t66 -23v396zM506 508q-29 32 -66 52.5t-79 23.5v-399q45 4 84 26.5t65 56.5h2v-61q-32 -27 -70.5 -44.5t-80.5 -19.5v-128h-45v129q-45 4 -83 24.5t-66 52.5t-44 72.5t-16 85.5
q0 47 15 89.5t42 75.5t65.5 54.5t86.5 26.5v117h45v-116q40 -2 77.5 -17t67.5 -41v-60z" />
    <glyph glyph-name="sterling" unicode="&#xa3;" 
d="M64 29q24 28 60.5 47t73.5 18q26 22 45 52.5t19 66.5l-3 29h-124v45h112l-81 138q-24 38 -39 71.5t-15 78.5q0 41 16.5 76t44 60t64 39t76.5 14q42 0 77.5 -16t61.5 -43t40 -63.5t13 -76.5h-48q0 33 -10.5 61t-30.5 49t-47.5 32.5t-61.5 11.5q-30 0 -57 -12t-47 -32.5
t-31.5 -47.5t-11.5 -57q0 -32 14.5 -61t31.5 -56q25 -41 50 -81t43 -85h136v-45h-127l2 -33q0 -35 -16 -68t-41 -58l10 -3q13 -5 33 -12.5t40.5 -14.5t40 -12.5t32.5 -5.5q36 0 63 26t43 56l41 -24q-11 -19 -25.5 -37.5t-32.5 -33t-39 -23.5t-44 -9q-26 0 -55 9.5t-58 20.5
t-55 20t-47 9q-33 0 -59.5 -18t-49.5 -41z" />
    <glyph glyph-name="currency" unicode="&#xa4;" 
d="M310 502q-44 -1 -82 -16.5t-66 -42.5t-44 -63.5t-15 -79.5q1 -41 17.5 -77.5t44.5 -64t65.5 -44t79.5 -16.5t79.5 16.5t65.5 44t44.5 64t17.5 77.5q1 43 -15 79.5t-44 63.5t-66.5 42.5t-81.5 16.5zM104 534l42 -42q41 29 78.5 43.5t85.5 14.5t85.5 -14.5t78.5 -43.5
l42 42l36 -36l-40 -40q28 -43 40.5 -79t12.5 -79t-12.5 -79t-40.5 -79l40 -40l-36 -36l-42 42q-41 -29 -78.5 -43.5t-85.5 -14.5t-85.5 14.5t-78.5 43.5l-42 -42l-36 36l40 40q-28 43 -40.5 79t-12.5 79t12.5 79t40.5 79l-40 40z" />
    <glyph glyph-name="yen" unicode="&#xa5;" 
d="M243 397h-161v45h134l-181 312h58l217 -377l217 377h58l-181 -312h134v-45h-160l-44 -75h204v-45h-204v-277h-48v277h-204v45h204z" />
    <glyph glyph-name="brokenbar" unicode="&#xa6;" horiz-adv-x="320" 
d="M136 661h48v-250h-48v250zM136 161h48v-250h-48v250z" />
    <glyph glyph-name="section" unicode="&#xa7;" 
d="M192 -11v-13q1 -61 27 -92.5t90 -31.5q56 0 92.5 30t36.5 87q0 32 -13.5 53.5t-34.5 36.5t-47 24.5t-51 18.5q-35 12 -65 26t-52 34.5t-35 50t-13 71.5q0 59 29.5 104t83.5 68q-49 24 -72.5 58.5t-23.5 91.5q0 39 13.5 68.5t37.5 49.5t56 30t68 10q47 0 78 -12.5
t49.5 -35.5t27.5 -57t12 -76h-48q-1 63 -28.5 99.5t-95.5 36.5q-54 0 -88 -32t-34 -87q0 -35 13 -56.5t34.5 -35.5t48.5 -23.5t55 -18.5t54.5 -21.5t47.5 -32.5t34 -51t13 -77q0 -58 -31 -100t-82 -67q53 -20 80 -59.5t27 -95.5q0 -40 -14 -69t-38 -48t-56.5 -28.5
t-69.5 -9.5q-91 0 -128.5 43.5t-35.5 128.5v10h48zM310 155q27 0 51.5 10.5t42.5 28.5t29 42t11 51t-11 51.5t-29 42.5t-42.5 29t-51.5 11t-51.5 -11t-43 -29t-29.5 -42.5t-11 -51.5t11 -51t29.5 -42t43 -28.5t51.5 -10.5z" />
    <glyph glyph-name="dieresis" unicode="&#xa8;" horiz-adv-x="421" 
d="M304 674q17 0 28.5 -11.5t11.5 -28.5t-11.5 -28.5t-28.5 -11.5t-28.5 11.5t-11.5 28.5t11.5 28.5t28.5 11.5zM117 674q17 0 28.5 -11.5t11.5 -28.5t-11.5 -28.5t-28.5 -11.5t-28.5 11.5t-11.5 28.5t11.5 28.5t28.5 11.5z" />
    <glyph glyph-name="copyright" unicode="&#xa9;" horiz-adv-x="800" 
d="M597 308q-3 -35 -19 -62.5t-40.5 -47t-55.5 -30t-64 -10.5q-48 0 -87.5 17t-67.5 47t-43.5 71t-15.5 88q0 48 14.5 88.5t42 70.5t66.5 46.5t88 16.5q70 0 120.5 -38t61.5 -108h-48q-4 23 -16.5 41t-30.5 31t-40.5 19.5t-45.5 6.5q-38 0 -68.5 -13.5t-51.5 -37t-32.5 -55
t-11.5 -67.5q0 -35 12 -67t33.5 -56t52 -38.5t68.5 -14.5q23 0 45 7t40 20t30.5 32t15.5 43h48zM401 38q70 0 132 26.5t107.5 72.5t72 108t26.5 133q0 70 -26.5 132t-72 107.5t-107.5 72t-132 26.5q-71 0 -133 -26.5t-108 -72t-72.5 -107.5t-26.5 -132q0 -71 26.5 -133
t72.5 -108t108 -72.5t133 -26.5zM401 -10q-80 0 -151 30.5t-123.5 83t-83 123.5t-30.5 151t30.5 150t83 122.5t123.5 83t151 30.5t150 -30.5t122.5 -83t83 -122.5t30.5 -150t-30.5 -151t-83 -123.5t-122.5 -83t-150 -30.5z" />
    <glyph glyph-name="ordfeminine" unicode="&#xaa;" horiz-adv-x="336" 
d="M315 481h-29v50h-2q-17 -27 -49 -41.5t-65 -14.5q-34 0 -61.5 11.5t-46.5 31t-29.5 46.5t-10.5 57t10 56.5t29 45.5t46.5 30t61.5 11q35 0 65.5 -14t49.5 -40h2v48h29v-277zM163 730q-24 0 -43.5 -9.5t-33.5 -24.5t-22 -35t-8 -41q0 -22 7.5 -42t22 -35.5t34.5 -24.5
t45 -9q27 0 48.5 9t36.5 25t23 36.5t8 43.5q0 22 -8.5 41.5t-24.5 34t-37.5 23t-47.5 8.5z" />
    <glyph glyph-name="guillemotleft" unicode="&#xab;" horiz-adv-x="397" 
d="M210 178l-29 -27l-146 169l146 169l29 -27l-121 -142zM330 178l-29 -27l-146 169l146 169l29 -27l-121 -142z" />
    <glyph glyph-name="logicalnot" unicode="&#xac;" 
d="M518 317h-464v48h512v-266h-48v218z" />
    <glyph glyph-name="hyphen" unicode="&#xad;" horiz-adv-x="190" 
d="M190 342v-45h-190v45h190z" />
    <glyph glyph-name="hyphen" unicode="&#x2010;" horiz-adv-x="190" 
d="M190 342v-45h-190v45h190z" />
    <glyph glyph-name="registered" unicode="&#xae;" horiz-adv-x="800" 
d="M391 401q22 0 49.5 -0.5t51 5t39.5 20t16 44.5q0 21 -10.5 33t-27 19t-37 9t-39.5 2h-125v-132h83zM590 158h-62l-121 195h-99v-195h-48v423h185q84 0 117 -30t33 -82q0 -31 -10 -53t-28 -35.5t-42.5 -20t-52.5 -7.5zM401 38q70 0 132 26.5t107.5 72.5t72 108t26.5 133
q0 70 -26.5 132t-72 107.5t-107.5 72t-132 26.5q-71 0 -133 -26.5t-108 -72t-72.5 -107.5t-26.5 -132q0 -71 26.5 -133t72.5 -108t108 -72.5t133 -26.5zM401 -10q-80 0 -151 30.5t-123.5 83t-83 123.5t-30.5 151t30.5 150t83 122.5t123.5 83t151 30.5t150 -30.5t122.5 -83
t83 -122.5t30.5 -150t-30.5 -151t-83 -123.5t-122.5 -83t-150 -30.5z" />
    <glyph glyph-name="macron" unicode="&#xaf;" horiz-adv-x="456" 
d="M380 674v-45h-305v45h305z" />
    <glyph glyph-name="degree" unicode="&#xb0;" horiz-adv-x="400" 
d="M199 722q-23 0 -42.5 -8.5t-33.5 -23t-22.5 -34.5t-8.5 -42q0 -46 31 -77t77 -31q22 0 42 8.5t34.5 23t23 34t8.5 42.5q0 22 -8.5 42t-23 34.5t-34.5 23t-43 8.5zM350 614q0 -31 -12 -58.5t-32.5 -47.5t-47.5 -32t-58 -12t-58.5 12t-47.5 32t-32 47.5t-12 58.5t11.5 58
t32 47.5t48 32.5t58.5 12t58 -12t47.5 -32.5t32.5 -47.5t12 -58z" />
    <glyph glyph-name="plusminus" unicode="&#xb1;" 
d="M54 48h512v-48h-512v48zM286 512h48v-192h232v-48h-232v-192h-48v192h-232v48h232v192z" />
    <glyph glyph-name="twosuperior" unicode="&#xb2;" horiz-adv-x="372" 
d="M336 340v-34h-302l182 185q14 14 29.5 31t28.5 35t21.5 37.5t8.5 39.5q0 44 -32.5 70t-80.5 26q-51 0 -82 -26.5t-31 -72.5h-34q1 24 7 45t24 40q21 23 52.5 35.5t63.5 12.5q30 0 57 -10t47 -28t31.5 -42t11.5 -52q0 -23 -8 -44t-21 -40.5t-28.5 -37t-30.5 -32.5
l-136 -138h222z" />
    <glyph glyph-name="threesuperior" unicode="&#xb3;" horiz-adv-x="372" 
d="M183 559q44 0 73 24t29 66q0 37 -27.5 59t-67.5 22q-42 0 -66 -20t-26 -58h-34q5 51 37.5 81.5t89.5 30.5q26 0 49.5 -9t41 -24.5t27.5 -37t10 -45.5q0 -35 -19.5 -63t-54.5 -42q37 -13 59 -43.5t22 -66.5q0 -28 -11 -52.5t-30.5 -42.5t-45.5 -28t-57 -10q-27 0 -52 8.5
t-43.5 24t-29.5 37t-11 47.5h34q5 -39 30.5 -61t70.5 -22q23 0 43.5 7.5t35.5 20t23.5 30.5t8.5 39q0 45 -31.5 69.5t-77.5 24.5v34z" />
    <glyph glyph-name="acute" unicode="&#xb4;" horiz-adv-x="313" 
d="M237 695l-124 -145l-38 17l101 147z" />
    <glyph glyph-name="mu" unicode="&#xb5;" horiz-adv-x="472" 
d="M70 -270v732h45v-228q0 -32 4.5 -67.5t17.5 -65.5t37 -49.5t62 -19.5q42 0 66 14t36 37t15.5 54t3.5 64v261h45v-277q0 -35 -3 -69.5t-25 -63.5q-24 -32 -61.5 -47t-76.5 -15q-15 0 -33 5t-34.5 15.5t-30.5 26t-21 35.5h-2v-342h-45z" />
    <glyph glyph-name="paragraph" unicode="&#xb6;" 
d="M282 370q-38 0 -70 15t-54.5 41t-35 60.5t-12.5 73.5q0 94 48.5 144t154.5 50h197v-45h-40v-887h-48v887h-92v-887h-48v548z" />
    <glyph glyph-name="periodcentered" unicode="&#xb7;" horiz-adv-x="310" 
d="M155 297q17 0 29 -12t12 -29t-12 -29t-29 -12t-29 12t-12 29t12 29t29 12z" />
    <glyph glyph-name="periodcentered" unicode="&#x22c5;" horiz-adv-x="310" 
d="M155 297q17 0 29 -12t12 -29t-12 -29t-29 -12t-29 12t-12 29t12 29t29 12z" />
    <glyph glyph-name="periodcentered" unicode="&#x2219;" horiz-adv-x="310" 
d="M155 297q17 0 29 -12t12 -29t-12 -29t-29 -12t-29 12t-12 29t12 29t29 12z" />
    <glyph glyph-name="cedilla" unicode="&#xb8;" horiz-adv-x="299" 
d="M113 -183l-38 19l93 144l56 -22z" />
    <glyph glyph-name="onesuperior" unicode="&#xb9;" horiz-adv-x="372" 
d="M134 720l15 34h95v-448h-34v414h-76z" />
    <glyph glyph-name="ordmasculine" unicode="&#xba;" horiz-adv-x="328" 
d="M161 730q-24 0 -45 -9t-36.5 -24.5t-24.5 -36t-9 -42.5q0 -21 9 -41t24.5 -35t36.5 -24t45 -9q25 0 47 8.5t38.5 23t26 34.5t9.5 43q0 24 -9.5 44.5t-25.5 35.5t-38.5 23.5t-47.5 8.5zM163 764q33 0 62 -11t50 -30.5t33.5 -45.5t12.5 -57t-12.5 -57.5t-33.5 -46
t-50 -30.5t-62 -11q-32 0 -60.5 11.5t-49.5 31t-33.5 45.5t-12.5 56t12 56.5t33 46t49.5 31t61.5 11.5z" />
    <glyph glyph-name="guillemotright" unicode="&#xbb;" horiz-adv-x="397" 
d="M308 320l-121 142l29 27l146 -169l-146 -169l-29 27zM188 320l-121 142l29 27l146 -169l-146 -169l-29 27z" />
    <glyph glyph-name="onequarter" unicode="&#xbc;" horiz-adv-x="930" 
d="M681 754l-447 -771l-32 18l447 771zM730 367h-5l-186 -247v-4h191v251zM830 116v-34h-66v-82h-34v82h-259v4l287 382h6v-352h66zM100 720l15 34h95v-448h-34v414h-76z" />
    <glyph glyph-name="onehalf" unicode="&#xbd;" horiz-adv-x="930" 
d="M637 754l-447 -771l-32 18l447 771zM828 34v-34h-302l182 185q14 14 29.5 31t28.5 35t21.5 37.5t8.5 39.5q0 44 -32.5 70t-80.5 26q-51 0 -82 -26.5t-31 -72.5h-34q1 24 7 45t24 40q21 23 52.5 35.5t63.5 12.5q30 0 57 -10t47 -28t31.5 -42t11.5 -52q0 -23 -8 -44
t-21 -40.5t-28.5 -37t-30.5 -32.5l-136 -138h222zM100 720l15 34h95v-448h-34v414h-76z" />
    <glyph glyph-name="threequarters" unicode="&#xbe;" horiz-adv-x="930" 
d="M734 754l-447 -771l-32 18l447 771zM197 559q44 0 73 24t29 66q0 37 -27.5 59t-67.5 22q-42 0 -66 -20t-26 -58h-34q5 51 37.5 81.5t89.5 30.5q26 0 49.5 -9t41 -24.5t27.5 -37t10 -45.5q0 -35 -19.5 -63t-54.5 -42q37 -13 59 -43.5t22 -66.5q0 -28 -11 -52.5
t-30.5 -42.5t-45.5 -28t-57 -10q-27 0 -52 8.5t-43.5 24t-29.5 37t-11 47.5h34q5 -39 30.5 -61t70.5 -22q23 0 43.5 7.5t35.5 20t23.5 30.5t8.5 39q0 45 -31.5 69.5t-77.5 24.5v34zM770 367h-5l-186 -247v-4h191v251zM870 116v-34h-66v-82h-34v82h-259v4l287 382h6v-352h66z
" />
    <glyph glyph-name="questiondown" unicode="&#xbf;" horiz-adv-x="491" 
d="M248 472q17 0 29 -12t12 -29t-12 -29t-29 -12t-29 12t-12 29t12 29t29 12zM89 159q-2 34 9 63.5t31.5 51t50 34t65.5 12.5q33 0 61.5 -11t50 -31t34 -47.5t12.5 -59.5q0 -35 -11 -60t-30 -43t-45 -30t-57 -20t-58 -17t-46.5 -23.5t-30.5 -37.5t-11 -60q0 -28 9.5 -53
t27 -43.5t42 -29.5t54.5 -11q28 0 52 9.5t41.5 27t27 40.5t9.5 50q0 14 -1 27t-4 26h46q3 -16 5 -31.5t2 -32.5q0 -36 -15 -65.5t-39.5 -51t-57 -33t-67.5 -11.5q-41 0 -74 13.5t-56.5 37.5t-36.5 57t-13 72q0 42 12 72t33.5 50.5t52 34t68.5 22.5q24 6 46 13t39 19
t27.5 30.5t10.5 48.5q0 47 -31.5 77t-80.5 30q-26 0 -45.5 -9.5t-33 -26t-20.5 -37.5t-7 -43h-48z" />
    <glyph glyph-name="Agrave" unicode="&#xc0;" horiz-adv-x="641" 
d="M300 971l101 -147l-38 -17l-124 145zM321 657l-148 -364h295zM155 248l-101 -248h-49l316 779l315 -779h-49l-101 248h-331z" />
    <glyph glyph-name="Aacute" unicode="&#xc1;" horiz-adv-x="641" 
d="M401 952l-124 -145l-38 17l101 147zM321 657l-148 -364h295zM155 248l-101 -248h-49l316 779l315 -779h-49l-101 248h-331z" />
    <glyph glyph-name="Acircumflex" unicode="&#xc2;" horiz-adv-x="641" 
d="M321 951l138 -106l-38 -29l-100 77l-102 -77l-36 29zM321 657l-148 -364h295zM155 248l-101 -248h-49l316 779l315 -779h-49l-101 248h-331z" />
    <glyph glyph-name="Atilde" unicode="&#xc3;" horiz-adv-x="641" 
d="M176 865q10 24 30 44t48 20q18 0 35.5 -6t34.5 -13t33 -13.5t30 -6.5q18 0 30.5 12.5t17.5 28.5l29 -22q-7 -27 -30 -46t-51 -19q-13 0 -30 6t-35 14q-17 8 -35 14t-33 6q-19 0 -29 -12.5t-15 -28.5zM321 657l-148 -364h295zM155 248l-101 -248h-49l316 779l315 -779h-49
l-101 248h-331z" />
    <glyph glyph-name="Adieresis" unicode="&#xc4;" horiz-adv-x="641" 
d="M414 931q17 0 28.5 -11.5t11.5 -28.5t-11.5 -28.5t-28.5 -11.5t-28.5 11.5t-11.5 28.5t11.5 28.5t28.5 11.5zM227 931q17 0 28.5 -11.5t11.5 -28.5t-11.5 -28.5t-28.5 -11.5t-28.5 11.5t-11.5 28.5t11.5 28.5t28.5 11.5zM321 657l-148 -364h295zM155 248l-101 -248h-49
l316 779l315 -779h-49l-101 248h-331z" />
    <glyph glyph-name="Aring" unicode="&#xc5;" horiz-adv-x="641" 
d="M321 931q-20 0 -33.5 -13.5t-13.5 -33.5t13.5 -33.5t33.5 -13.5t33.5 13.5t13.5 33.5t-13.5 33.5t-33.5 13.5zM321 971q36 0 61.5 -25.5t25.5 -61.5t-25.5 -61.5t-61.5 -25.5t-61.5 25.5t-25.5 61.5t25.5 61.5t61.5 25.5zM321 657l-148 -364h295zM155 248l-101 -248h-49
l316 779l315 -779h-49l-101 248h-331z" />
    <glyph glyph-name="AE" unicode="&#xc6;" horiz-adv-x="942" 
d="M317 648l-141 -355h285zM157 248l-98 -248h-54l304 754h329l17 -45h-311l112 -274h303l19 -45h-303l140 -345h312l18 -45h-365l-100 248h-323z" />
    <glyph glyph-name="Ccedilla" unicode="&#xc7;" horiz-adv-x="739" 
d="M333 -183l-38 19l93 144l56 -22zM680 600q-22 27 -51 48.5t-62.5 37.5t-69 24.5t-70.5 8.5q-71 0 -133 -28t-109 -76t-74 -111t-27 -132q0 -66 26.5 -126t74.5 -107q48 -45 111.5 -74.5t130.5 -29.5q33 0 68.5 8.5t69.5 23.5t64 36t51 47v-66q-54 -45 -117.5 -69.5
t-133.5 -24.5q-79 0 -150 30.5t-125 83t-86 123t-32 149.5q0 80 31.5 151t85.5 123.5t125.5 83t151.5 30.5q69 0 134 -25.5t116 -72.5v-66z" />
    <glyph glyph-name="Egrave" unicode="&#xc8;" horiz-adv-x="507" 
d="M233 971l101 -147l-38 -17l-124 145zM129 709v-274h304v-45h-304v-345h312v-45h-360v754h360v-45h-312z" />
    <glyph glyph-name="Eacute" unicode="&#xc9;" horiz-adv-x="507" 
d="M354 952l-124 -145l-38 17l101 147zM129 709v-274h304v-45h-304v-345h312v-45h-360v754h360v-45h-312z" />
    <glyph glyph-name="Ecircumflex" unicode="&#xca;" horiz-adv-x="507" 
d="M254 951l138 -106l-38 -29l-100 77l-102 -77l-36 29zM129 709v-274h304v-45h-304v-345h312v-45h-360v754h360v-45h-312z" />
    <glyph glyph-name="Edieresis" unicode="&#xcb;" horiz-adv-x="507" 
d="M347 931q17 0 28.5 -11.5t11.5 -28.5t-11.5 -28.5t-28.5 -11.5t-28.5 11.5t-11.5 28.5t11.5 28.5t28.5 11.5zM160 931q17 0 28.5 -11.5t11.5 -28.5t-11.5 -28.5t-28.5 -11.5t-28.5 11.5t-11.5 28.5t11.5 28.5t28.5 11.5zM129 709v-274h304v-45h-304v-345h312v-45h-360
v754h360v-45h-312z" />
    <glyph glyph-name="Igrave" unicode="&#xcc;" horiz-adv-x="210" 
d="M85 971l101 -147l-38 -17l-124 145zM129 0h-48v754h48v-754z" />
    <glyph glyph-name="Iacute" unicode="&#xcd;" horiz-adv-x="210" 
d="M186 952l-124 -145l-38 17l101 147zM129 0h-48v754h48v-754z" />
    <glyph glyph-name="Icircumflex" unicode="&#xce;" horiz-adv-x="210" 
d="M105 951l138 -106l-38 -29l-100 77l-102 -77l-36 29zM129 0h-48v754h48v-754z" />
    <glyph glyph-name="Idieresis" unicode="&#xcf;" horiz-adv-x="210" 
d="M199 931q17 0 28.5 -11.5t11.5 -28.5t-11.5 -28.5t-28.5 -11.5t-28.5 11.5t-11.5 28.5t11.5 28.5t28.5 11.5zM12 931q17 0 28.5 -11.5t11.5 -28.5t-11.5 -28.5t-28.5 -11.5t-28.5 11.5t-11.5 28.5t11.5 28.5t28.5 11.5zM129 0h-48v754h48v-754z" />
    <glyph glyph-name="Eth" unicode="&#xd0;" horiz-adv-x="652" 
d="M81 389h-81v45h81v320h136q41 0 78.5 -4t72 -14.5t66.5 -29t63 -47.5q60 -56 90 -129t30 -154q0 -78 -29.5 -149.5t-86.5 -126.5q-62 -60 -131 -80t-153 -20h-136v389zM129 434h173v-45h-173v-344h87q74 0 136.5 19t116.5 72q48 48 74 110t26 130q0 72 -27.5 137
t-81.5 114t-113.5 65.5t-130.5 16.5h-87v-275z" />
    <glyph glyph-name="Ntilde" unicode="&#xd1;" horiz-adv-x="843" 
d="M277 865q10 24 30 44t48 20q18 0 35.5 -6t34.5 -13t33 -13.5t30 -6.5q18 0 30.5 12.5t17.5 28.5l29 -22q-7 -27 -30 -46t-51 -19q-13 0 -30 6t-35 14q-17 8 -35 14t-33 6q-19 0 -29 -12.5t-15 -28.5zM762 -25l-633 673v-648h-48v764l633 -668v658h48v-779z" />
    <glyph glyph-name="Ograve" unicode="&#xd2;" horiz-adv-x="854" 
d="M407 971l101 -147l-38 -17l-124 145zM427 719q-71 0 -133 -27.5t-109 -74t-74 -108.5t-27 -132t27 -132t74 -108.5t109 -74t133 -27.5q70 0 132.5 27.5t109 74t74 109t27.5 131.5q0 70 -27.5 132t-74 108.5t-109 74t-132.5 27.5zM427 764q79 0 150.5 -30.5t124.5 -83.5
t84.5 -123.5t31.5 -149.5q0 -80 -31.5 -150t-84.5 -123t-124.5 -83.5t-150.5 -30.5q-80 0 -151 30.5t-124 83.5t-84.5 123t-31.5 150q0 79 31 149.5t84.5 123.5t124.5 83.5t151 30.5z" />
    <glyph glyph-name="Oacute" unicode="&#xd3;" horiz-adv-x="854" 
d="M508 952l-124 -145l-38 17l101 147zM427 719q-71 0 -133 -27.5t-109 -74t-74 -108.5t-27 -132t27 -132t74 -108.5t109 -74t133 -27.5q70 0 132.5 27.5t109 74t74 109t27.5 131.5q0 70 -27.5 132t-74 108.5t-109 74t-132.5 27.5zM427 764q79 0 150.5 -30.5t124.5 -83.5
t84.5 -123.5t31.5 -149.5q0 -80 -31.5 -150t-84.5 -123t-124.5 -83.5t-150.5 -30.5q-80 0 -151 30.5t-124 83.5t-84.5 123t-31.5 150q0 79 31 149.5t84.5 123.5t124.5 83.5t151 30.5z" />
    <glyph glyph-name="Ocircumflex" unicode="&#xd4;" horiz-adv-x="854" 
d="M427 951l138 -106l-38 -29l-100 77l-102 -77l-36 29zM427 719q-71 0 -133 -27.5t-109 -74t-74 -108.5t-27 -132t27 -132t74 -108.5t109 -74t133 -27.5q70 0 132.5 27.5t109 74t74 109t27.5 131.5q0 70 -27.5 132t-74 108.5t-109 74t-132.5 27.5zM427 764
q79 0 150.5 -30.5t124.5 -83.5t84.5 -123.5t31.5 -149.5q0 -80 -31.5 -150t-84.5 -123t-124.5 -83.5t-150.5 -30.5q-80 0 -151 30.5t-124 83.5t-84.5 123t-31.5 150q0 79 31 149.5t84.5 123.5t124.5 83.5t151 30.5z" />
    <glyph glyph-name="Otilde" unicode="&#xd5;" horiz-adv-x="854" 
d="M283 865q10 24 30 44t48 20q18 0 35.5 -6t34.5 -13t33 -13.5t30 -6.5q18 0 30.5 12.5t17.5 28.5l29 -22q-7 -27 -30 -46t-51 -19q-13 0 -30 6t-35 14q-17 8 -35 14t-33 6q-19 0 -29 -12.5t-15 -28.5zM427 719q-71 0 -133 -27.5t-109 -74t-74 -108.5t-27 -132t27 -132
t74 -108.5t109 -74t133 -27.5q70 0 132.5 27.5t109 74t74 109t27.5 131.5q0 70 -27.5 132t-74 108.5t-109 74t-132.5 27.5zM427 764q79 0 150.5 -30.5t124.5 -83.5t84.5 -123.5t31.5 -149.5q0 -80 -31.5 -150t-84.5 -123t-124.5 -83.5t-150.5 -30.5q-80 0 -151 30.5
t-124 83.5t-84.5 123t-31.5 150q0 79 31 149.5t84.5 123.5t124.5 83.5t151 30.5z" />
    <glyph glyph-name="Odieresis" unicode="&#xd6;" horiz-adv-x="854" 
d="M521 931q17 0 28.5 -11.5t11.5 -28.5t-11.5 -28.5t-28.5 -11.5t-28.5 11.5t-11.5 28.5t11.5 28.5t28.5 11.5zM334 931q17 0 28.5 -11.5t11.5 -28.5t-11.5 -28.5t-28.5 -11.5t-28.5 11.5t-11.5 28.5t11.5 28.5t28.5 11.5zM427 719q-71 0 -133 -27.5t-109 -74t-74 -108.5
t-27 -132t27 -132t74 -108.5t109 -74t133 -27.5q70 0 132.5 27.5t109 74t74 109t27.5 131.5q0 70 -27.5 132t-74 108.5t-109 74t-132.5 27.5zM427 764q79 0 150.5 -30.5t124.5 -83.5t84.5 -123.5t31.5 -149.5q0 -80 -31.5 -150t-84.5 -123t-124.5 -83.5t-150.5 -30.5
q-80 0 -151 30.5t-124 83.5t-84.5 123t-31.5 150q0 79 31 149.5t84.5 123.5t124.5 83.5t151 30.5z" />
    <glyph glyph-name="multiply" unicode="&#xd7;" 
d="M54 478l30 34l226 -226l226 226l30 -34l-224 -222l224 -224l-30 -32l-226 225l-225 -225l-31 32l225 224z" />
    <glyph glyph-name="Oslash" unicode="&#xd8;" horiz-adv-x="854" 
d="M139 119q-48 52 -75.5 118t-27.5 140q0 79 31 149.5t84.5 123.5t124.5 83.5t151 30.5q74 0 140 -26.5t118 -72.5l91 91l29 -26l-92 -92q49 -52 77 -119t28 -142q0 -80 -31.5 -150t-84.5 -123t-124.5 -83.5t-150.5 -30.5q-75 0 -142 26.5t-118 74.5l-91 -91l-27 29z
M199 123q46 -41 104 -64.5t124 -23.5q70 0 132.5 27.5t109 74t74 109t27.5 131.5q0 66 -24 124.5t-66 103.5zM652 632q-45 41 -102.5 64t-122.5 23q-71 0 -133 -27.5t-109 -74t-74 -108.5t-27 -132q0 -65 23 -123t64 -103z" />
    <glyph glyph-name="Ugrave" unicode="&#xd9;" horiz-adv-x="660" 
d="M295 971l101 -147l-38 -17l-124 145zM538 754h48v-470q0 -29 -1 -56t-5.5 -52.5t-15 -49.5t-29.5 -48q-38 -44 -93 -66t-112 -22t-112 22t-93 66q-19 24 -29.5 48t-15 49.5t-5.5 52.5t-1 56v470h48v-456q0 -26 0.5 -51.5t4.5 -50t11.5 -47t22.5 -41.5q14 -18 34 -31.5
t42.5 -23t46.5 -14t46 -4.5t46 4.5t46.5 14t42.5 23t34 31.5q15 19 22.5 41.5t11.5 47t4.5 50t0.5 51.5v456z" />
    <glyph glyph-name="Uacute" unicode="&#xda;" horiz-adv-x="660" 
d="M426 952l-124 -145l-38 17l101 147zM538 754h48v-470q0 -29 -1 -56t-5.5 -52.5t-15 -49.5t-29.5 -48q-38 -44 -93 -66t-112 -22t-112 22t-93 66q-19 24 -29.5 48t-15 49.5t-5.5 52.5t-1 56v470h48v-456q0 -26 0.5 -51.5t4.5 -50t11.5 -47t22.5 -41.5q14 -18 34 -31.5
t42.5 -23t46.5 -14t46 -4.5t46 4.5t46.5 14t42.5 23t34 31.5q15 19 22.5 41.5t11.5 47t4.5 50t0.5 51.5v456z" />
    <glyph glyph-name="Ucircumflex" unicode="&#xdb;" horiz-adv-x="660" 
d="M330 951l138 -106l-38 -29l-100 77l-102 -77l-36 29zM538 754h48v-470q0 -29 -1 -56t-5.5 -52.5t-15 -49.5t-29.5 -48q-38 -44 -93 -66t-112 -22t-112 22t-93 66q-19 24 -29.5 48t-15 49.5t-5.5 52.5t-1 56v470h48v-456q0 -26 0.5 -51.5t4.5 -50t11.5 -47t22.5 -41.5
q14 -18 34 -31.5t42.5 -23t46.5 -14t46 -4.5t46 4.5t46.5 14t42.5 23t34 31.5q15 19 22.5 41.5t11.5 47t4.5 50t0.5 51.5v456z" />
    <glyph glyph-name="Udieresis" unicode="&#xdc;" horiz-adv-x="660" 
d="M424 931q17 0 28.5 -11.5t11.5 -28.5t-11.5 -28.5t-28.5 -11.5t-28.5 11.5t-11.5 28.5t11.5 28.5t28.5 11.5zM237 931q17 0 28.5 -11.5t11.5 -28.5t-11.5 -28.5t-28.5 -11.5t-28.5 11.5t-11.5 28.5t11.5 28.5t28.5 11.5zM538 754h48v-470q0 -29 -1 -56t-5.5 -52.5
t-15 -49.5t-29.5 -48q-38 -44 -93 -66t-112 -22t-112 22t-93 66q-19 24 -29.5 48t-15 49.5t-5.5 52.5t-1 56v470h48v-456q0 -26 0.5 -51.5t4.5 -50t11.5 -47t22.5 -41.5q14 -18 34 -31.5t42.5 -23t46.5 -14t46 -4.5t46 4.5t46.5 14t42.5 23t34 31.5q15 19 22.5 41.5t11.5 47
t4.5 50t0.5 51.5v456z" />
    <glyph glyph-name="Yacute" unicode="&#xdd;" horiz-adv-x="559" 
d="M390 952l-124 -145l-38 17l101 147zM4 754h53l222 -382l222 382h53l-251 -432v-322h-48v322z" />
    <glyph glyph-name="Thorn" unicode="&#xde;" horiz-adv-x="472" 
d="M216 243q37 0 70 7.5t62 33.5q49 45 49 113q0 35 -14 68t-43 54q-29 22 -63 26t-69 4h-79v-306h87zM81 754h48v-160h85q45 0 86.5 -7t76.5 -37q35 -29 51.5 -69.5t16.5 -85.5q0 -41 -15.5 -82t-47.5 -67q-35 -30 -79 -39t-89 -9h-85v-198h-48v754z" />
    <glyph glyph-name="germandbls" unicode="&#xdf;" horiz-adv-x="534" 
d="M77 420h-49v42h49v188q0 35 5.5 69.5t28.5 61.5q23 29 59.5 43t73.5 14q35 0 64 -12.5t50 -34t33 -51.5t12 -64q0 -45 -23 -82.5t-65 -53.5v-2q42 -12 76.5 -37.5t59 -61t38 -77t13.5 -84.5q0 -57 -21.5 -106.5t-58.5 -87t-86.5 -61.5t-104.5 -29v42q46 7 87 27.5t72 52
t49 73t18 89.5q0 50 -17 91t-47.5 72t-72 49.5t-89.5 23.5v42q57 1 92 34.5t35 90.5q0 26 -9.5 47t-25.5 36t-38.5 23.5t-47.5 8.5q-27 0 -54.5 -11.5t-41.5 -36.5q-14 -23 -16.5 -55t-2.5 -59v-634h-45v420z" />
    <glyph glyph-name="agrave" unicode="&#xe0;" horiz-adv-x="560" 
d="M245 714l101 -147l-38 -17l-124 145zM483 0h-45v83h-2q-13 -22 -32.5 -39.5t-43 -29.5t-49.5 -18t-51 -6q-53 0 -95 19t-71.5 52t-45.5 77.5t-16 95.5t16 94.5t45 75.5t71 50t94 18q54 0 101.5 -23t76.5 -67h2v80h45v-462zM256 430q-40 0 -73 -16.5t-56.5 -44t-36.5 -63
t-13 -72.5q0 -40 12.5 -76.5t36.5 -64.5t57.5 -44.5t75.5 -16.5q44 0 78 16.5t57 45t35 66t12 79.5q0 40 -13 75t-37.5 60.5t-58.5 40.5t-76 15z" />
    <glyph glyph-name="aacute" unicode="&#xe1;" horiz-adv-x="560" 
d="M376 695l-124 -145l-38 17l101 147zM483 0h-45v83h-2q-13 -22 -32.5 -39.5t-43 -29.5t-49.5 -18t-51 -6q-53 0 -95 19t-71.5 52t-45.5 77.5t-16 95.5t16 94.5t45 75.5t71 50t94 18q54 0 101.5 -23t76.5 -67h2v80h45v-462zM256 430q-40 0 -73 -16.5t-56.5 -44t-36.5 -63
t-13 -72.5q0 -40 12.5 -76.5t36.5 -64.5t57.5 -44.5t75.5 -16.5q44 0 78 16.5t57 45t35 66t12 79.5q0 40 -13 75t-37.5 60.5t-58.5 40.5t-76 15z" />
    <glyph glyph-name="acircumflex" unicode="&#xe2;" horiz-adv-x="560" 
d="M280 694l138 -106l-38 -29l-100 77l-102 -77l-36 29zM483 0h-45v83h-2q-13 -22 -32.5 -39.5t-43 -29.5t-49.5 -18t-51 -6q-53 0 -95 19t-71.5 52t-45.5 77.5t-16 95.5t16 94.5t45 75.5t71 50t94 18q54 0 101.5 -23t76.5 -67h2v80h45v-462zM256 430q-40 0 -73 -16.5
t-56.5 -44t-36.5 -63t-13 -72.5q0 -40 12.5 -76.5t36.5 -64.5t57.5 -44.5t75.5 -16.5q44 0 78 16.5t57 45t35 66t12 79.5q0 40 -13 75t-37.5 60.5t-58.5 40.5t-76 15z" />
    <glyph glyph-name="atilde" unicode="&#xe3;" horiz-adv-x="560" 
d="M136 608q10 24 30 44t48 20q18 0 35.5 -6t34.5 -13t33 -13.5t30 -6.5q18 0 30.5 12.5t17.5 28.5l29 -22q-7 -27 -30 -46t-51 -19q-13 0 -30 6t-35 14q-17 8 -35 14t-33 6q-19 0 -29 -12.5t-15 -28.5zM483 0h-45v83h-2q-13 -22 -32.5 -39.5t-43 -29.5t-49.5 -18t-51 -6
q-53 0 -95 19t-71.5 52t-45.5 77.5t-16 95.5t16 94.5t45 75.5t71 50t94 18q54 0 101.5 -23t76.5 -67h2v80h45v-462zM256 430q-40 0 -73 -16.5t-56.5 -44t-36.5 -63t-13 -72.5q0 -40 12.5 -76.5t36.5 -64.5t57.5 -44.5t75.5 -16.5q44 0 78 16.5t57 45t35 66t12 79.5
q0 40 -13 75t-37.5 60.5t-58.5 40.5t-76 15z" />
    <glyph glyph-name="adieresis" unicode="&#xe4;" horiz-adv-x="560" 
d="M374 674q17 0 28.5 -11.5t11.5 -28.5t-11.5 -28.5t-28.5 -11.5t-28.5 11.5t-11.5 28.5t11.5 28.5t28.5 11.5zM187 674q17 0 28.5 -11.5t11.5 -28.5t-11.5 -28.5t-28.5 -11.5t-28.5 11.5t-11.5 28.5t11.5 28.5t28.5 11.5zM483 0h-45v83h-2q-13 -22 -32.5 -39.5t-43 -29.5
t-49.5 -18t-51 -6q-53 0 -95 19t-71.5 52t-45.5 77.5t-16 95.5t16 94.5t45 75.5t71 50t94 18q54 0 101.5 -23t76.5 -67h2v80h45v-462zM256 430q-40 0 -73 -16.5t-56.5 -44t-36.5 -63t-13 -72.5q0 -40 12.5 -76.5t36.5 -64.5t57.5 -44.5t75.5 -16.5q44 0 78 16.5t57 45t35 66
t12 79.5q0 40 -13 75t-37.5 60.5t-58.5 40.5t-76 15z" />
    <glyph glyph-name="aring" unicode="&#xe5;" horiz-adv-x="560" 
d="M280 674q-20 0 -33.5 -13.5t-13.5 -33.5t13.5 -33.5t33.5 -13.5t33.5 13.5t13.5 33.5t-13.5 33.5t-33.5 13.5zM280 714q36 0 61.5 -25.5t25.5 -61.5t-25.5 -61.5t-61.5 -25.5t-61.5 25.5t-25.5 61.5t25.5 61.5t61.5 25.5zM483 0h-45v83h-2q-13 -22 -32.5 -39.5t-43 -29.5
t-49.5 -18t-51 -6q-53 0 -95 19t-71.5 52t-45.5 77.5t-16 95.5t16 94.5t45 75.5t71 50t94 18q54 0 101.5 -23t76.5 -67h2v80h45v-462zM256 430q-40 0 -73 -16.5t-56.5 -44t-36.5 -63t-13 -72.5q0 -40 12.5 -76.5t36.5 -64.5t57.5 -44.5t75.5 -16.5q44 0 78 16.5t57 45t35 66
t12 79.5q0 40 -13 75t-37.5 60.5t-58.5 40.5t-76 15z" />
    <glyph glyph-name="ae" unicode="&#xe6;" horiz-adv-x="849" 
d="M802 110q-35 -54 -87.5 -87t-118.5 -33q-29 0 -58 7.5t-54 22.5t-45 36t-32 48h-2q-8 -31 -28 -52.5t-46.5 -35t-57.5 -20t-60 -6.5q-32 0 -66 8.5t-62 26t-46 44.5t-18 65q0 39 19 67t48.5 45t65 25t68.5 8q42 0 79 -10t70 -39q0 40 -8.5 76.5t-28 64t-51 43.5t-76.5 16
q-41 0 -79.5 -12.5t-75.5 -29.5v46q75 38 164 38q65 0 112 -33.5t69 -94.5q12 29 32.5 52.5t46.5 40.5t56 26t61 9q52 0 93.5 -20t70.5 -54t44.5 -78.5t15.5 -93.5h-401q1 -39 14.5 -74t37 -62t56.5 -42.5t74 -15.5q54 0 96.5 29.5t68.5 74.5zM222 237q-24 0 -51.5 -4.5
t-51 -16.5t-38.5 -31.5t-15 -49.5q0 -31 14 -51t36 -31.5t49 -16t52 -4.5q23 0 50 5.5t50 18t38.5 32t15.5 47.5q0 29 -14 48.5t-36 31.5t-48.5 17t-50.5 5zM772 268q-4 32 -19.5 61t-39 51.5t-53.5 36t-64 13.5q-35 0 -66.5 -13t-55.5 -35.5t-39.5 -51.5t-18.5 -62h356z
" />
    <glyph glyph-name="ccedilla" unicode="&#xe7;" horiz-adv-x="477" 
d="M202 -183l-38 19l93 144l56 -22zM431 355q-33 36 -73 55.5t-90 19.5q-41 0 -76 -16t-60.5 -43.5t-40 -63.5t-14.5 -75t14.5 -75.5t40 -64t60 -44t75.5 -16.5q50 0 94 22.5t76 60.5v-61q-35 -31 -78 -47.5t-90 -16.5q-51 0 -94.5 19t-75 51.5t-49.5 76.5t-18 95
q0 50 18 94t50 76.5t75.5 51t94.5 18.5q45 0 85.5 -14t75.5 -43v-60z" />
    <glyph glyph-name="egrave" unicode="&#xe8;" horiz-adv-x="510" 
d="M220 714l101 -147l-38 -17l-124 145zM433 269q-4 32 -18.5 61t-38 51.5t-53.5 35.5t-66 13q-35 0 -66.5 -13t-55.5 -35t-39.5 -51t-18.5 -62h356zM77 227q-1 -44 12.5 -80t38.5 -61.5t59.5 -39.5t74.5 -14q54 0 96 29t67 76l38 -22q-32 -60 -85 -92.5t-122 -32.5
q-51 0 -92.5 19.5t-71 52.5t-45 77t-15.5 93q0 48 16 91.5t45.5 76.5t70.5 52.5t92 19.5q52 0 93.5 -19.5t70 -53t43.5 -78t15 -94.5h-401z" />
    <glyph glyph-name="eacute" unicode="&#xe9;" horiz-adv-x="510" 
d="M351 695l-124 -145l-38 17l101 147zM433 269q-4 32 -18.5 61t-38 51.5t-53.5 35.5t-66 13q-35 0 -66.5 -13t-55.5 -35t-39.5 -51t-18.5 -62h356zM77 227q-1 -44 12.5 -80t38.5 -61.5t59.5 -39.5t74.5 -14q54 0 96 29t67 76l38 -22q-32 -60 -85 -92.5t-122 -32.5
q-51 0 -92.5 19.5t-71 52.5t-45 77t-15.5 93q0 48 16 91.5t45.5 76.5t70.5 52.5t92 19.5q52 0 93.5 -19.5t70 -53t43.5 -78t15 -94.5h-401z" />
    <glyph glyph-name="ecircumflex" unicode="&#xea;" horiz-adv-x="510" 
d="M255 694l138 -106l-38 -29l-100 77l-102 -77l-36 29zM433 269q-4 32 -18.5 61t-38 51.5t-53.5 35.5t-66 13q-35 0 -66.5 -13t-55.5 -35t-39.5 -51t-18.5 -62h356zM77 227q-1 -44 12.5 -80t38.5 -61.5t59.5 -39.5t74.5 -14q54 0 96 29t67 76l38 -22q-32 -60 -85 -92.5
t-122 -32.5q-51 0 -92.5 19.5t-71 52.5t-45 77t-15.5 93q0 48 16 91.5t45.5 76.5t70.5 52.5t92 19.5q52 0 93.5 -19.5t70 -53t43.5 -78t15 -94.5h-401z" />
    <glyph glyph-name="edieresis" unicode="&#xeb;" horiz-adv-x="510" 
d="M349 674q17 0 28.5 -11.5t11.5 -28.5t-11.5 -28.5t-28.5 -11.5t-28.5 11.5t-11.5 28.5t11.5 28.5t28.5 11.5zM162 674q17 0 28.5 -11.5t11.5 -28.5t-11.5 -28.5t-28.5 -11.5t-28.5 11.5t-11.5 28.5t11.5 28.5t28.5 11.5zM433 269q-4 32 -18.5 61t-38 51.5t-53.5 35.5
t-66 13q-35 0 -66.5 -13t-55.5 -35t-39.5 -51t-18.5 -62h356zM77 227q-1 -44 12.5 -80t38.5 -61.5t59.5 -39.5t74.5 -14q54 0 96 29t67 76l38 -22q-32 -60 -85 -92.5t-122 -32.5q-51 0 -92.5 19.5t-71 52.5t-45 77t-15.5 93q0 48 16 91.5t45.5 76.5t70.5 52.5t92 19.5
q52 0 93.5 -19.5t70 -53t43.5 -78t15 -94.5h-401z" />
    <glyph glyph-name="igrave" unicode="&#xec;" horiz-adv-x="234" 
d="M82 714l101 -147l-38 -17l-124 145zM139 0h-45v462h45v-462z" />
    <glyph glyph-name="iacute" unicode="&#xed;" horiz-adv-x="234" 
d="M213 695l-124 -145l-38 17l101 147zM139 0h-45v462h45v-462z" />
    <glyph glyph-name="icircumflex" unicode="&#xee;" horiz-adv-x="234" 
d="M117 694l138 -106l-38 -29l-100 77l-102 -77l-36 29zM139 0h-45v462h45v-462z" />
    <glyph glyph-name="idieresis" unicode="&#xef;" horiz-adv-x="234" 
d="M211 674q17 0 28.5 -11.5t11.5 -28.5t-11.5 -28.5t-28.5 -11.5t-28.5 11.5t-11.5 28.5t11.5 28.5t28.5 11.5zM24 674q17 0 28.5 -11.5t11.5 -28.5t-11.5 -28.5t-28.5 -11.5t-28.5 11.5t-11.5 28.5t11.5 28.5t28.5 11.5zM139 0h-45v462h45v-462z" />
    <glyph glyph-name="eth" unicode="&#xf0;" horiz-adv-x="547" 
d="M269 430q-41 0 -76.5 -16t-61 -43.5t-40 -64t-14.5 -76.5q0 -39 14.5 -75t40.5 -63.5t61 -43.5t76 -16q42 0 79 15t64 42t42.5 63t15.5 78q0 43 -15.5 79.5t-42.5 63.5t-63.5 42t-79.5 15zM121 828q38 -23 70.5 -44.5t68.5 -50.5l155 87l25 -33l-147 -82q49 -43 90 -93
t70 -106.5t45.5 -118t16.5 -127.5q0 -71 -21 -122t-55.5 -84t-78 -48.5t-88.5 -15.5q-50 0 -94 19t-76.5 52t-51 77t-18.5 93q0 48 18.5 92t51 77.5t77 53t96.5 19.5q33 0 59.5 -7t47 -17.5t36 -23t26.5 -22.5q-13 37 -29 71.5t-38 68t-52 67.5t-72 72l-146 -82l-25 34
l137 75q-31 26 -63.5 47.5t-66.5 41.5z" />
    <glyph glyph-name="ntilde" unicode="&#xf1;" horiz-adv-x="490" 
d="M101 608q10 24 30 44t48 20q18 0 35.5 -6t34.5 -13t33 -13.5t30 -6.5q18 0 30.5 12.5t17.5 28.5l29 -22q-7 -27 -30 -46t-51 -19q-13 0 -30 6t-35 14q-17 8 -35 14t-33 6q-19 0 -29 -12.5t-15 -28.5zM122 390h2q20 38 56 60t81 22t74 -13.5t46.5 -38.5t24.5 -60.5
t7 -80.5v-279h-45v279q0 31 -3 58.5t-14.5 48t-33.5 32.5t-60 12q-44 0 -70.5 -18.5t-40.5 -47.5t-19 -65t-5 -71v-228h-45v462h45v-72z" />
    <glyph glyph-name="ograve" unicode="&#xf2;" horiz-adv-x="547" 
d="M238 714l101 -147l-38 -17l-124 145zM269 430q-41 0 -76.5 -16t-61 -43.5t-40 -64t-14.5 -76.5q0 -39 14.5 -75t40.5 -63.5t61 -43.5t76 -16q42 0 79 15t64 42t42.5 63t15.5 78q0 43 -15.5 79.5t-42.5 63.5t-63.5 42t-79.5 15zM272 472q51 0 95.5 -18.5t77 -50.5
t51.5 -76.5t19 -95.5t-19 -95.5t-51.5 -76.5t-77 -50.5t-95.5 -18.5q-50 0 -93.5 19t-76 52t-51.5 76.5t-19 92.5q0 50 18.5 94t51 77t76.5 52t94 19z" />
    <glyph glyph-name="oacute" unicode="&#xf3;" horiz-adv-x="547" 
d="M369 695l-124 -145l-38 17l101 147zM269 430q-41 0 -76.5 -16t-61 -43.5t-40 -64t-14.5 -76.5q0 -39 14.5 -75t40.5 -63.5t61 -43.5t76 -16q42 0 79 15t64 42t42.5 63t15.5 78q0 43 -15.5 79.5t-42.5 63.5t-63.5 42t-79.5 15zM272 472q51 0 95.5 -18.5t77 -50.5
t51.5 -76.5t19 -95.5t-19 -95.5t-51.5 -76.5t-77 -50.5t-95.5 -18.5q-50 0 -93.5 19t-76 52t-51.5 76.5t-19 92.5q0 50 18.5 94t51 77t76.5 52t94 19z" />
    <glyph glyph-name="ocircumflex" unicode="&#xf4;" horiz-adv-x="547" 
d="M274 694l138 -106l-38 -29l-100 77l-102 -77l-36 29zM269 430q-41 0 -76.5 -16t-61 -43.5t-40 -64t-14.5 -76.5q0 -39 14.5 -75t40.5 -63.5t61 -43.5t76 -16q42 0 79 15t64 42t42.5 63t15.5 78q0 43 -15.5 79.5t-42.5 63.5t-63.5 42t-79.5 15zM272 472q51 0 95.5 -18.5
t77 -50.5t51.5 -76.5t19 -95.5t-19 -95.5t-51.5 -76.5t-77 -50.5t-95.5 -18.5q-50 0 -93.5 19t-76 52t-51.5 76.5t-19 92.5q0 50 18.5 94t51 77t76.5 52t94 19z" />
    <glyph glyph-name="otilde" unicode="&#xf5;" horiz-adv-x="547" 
d="M129 608q10 24 30 44t48 20q18 0 35.5 -6t34.5 -13t33 -13.5t30 -6.5q18 0 30.5 12.5t17.5 28.5l29 -22q-7 -27 -30 -46t-51 -19q-13 0 -30 6t-35 14q-17 8 -35 14t-33 6q-19 0 -29 -12.5t-15 -28.5zM269 430q-41 0 -76.5 -16t-61 -43.5t-40 -64t-14.5 -76.5
q0 -39 14.5 -75t40.5 -63.5t61 -43.5t76 -16q42 0 79 15t64 42t42.5 63t15.5 78q0 43 -15.5 79.5t-42.5 63.5t-63.5 42t-79.5 15zM272 472q51 0 95.5 -18.5t77 -50.5t51.5 -76.5t19 -95.5t-19 -95.5t-51.5 -76.5t-77 -50.5t-95.5 -18.5q-50 0 -93.5 19t-76 52t-51.5 76.5
t-19 92.5q0 50 18.5 94t51 77t76.5 52t94 19z" />
    <glyph glyph-name="odieresis" unicode="&#xf6;" horiz-adv-x="547" 
d="M367 674q17 0 28.5 -11.5t11.5 -28.5t-11.5 -28.5t-28.5 -11.5t-28.5 11.5t-11.5 28.5t11.5 28.5t28.5 11.5zM180 674q17 0 28.5 -11.5t11.5 -28.5t-11.5 -28.5t-28.5 -11.5t-28.5 11.5t-11.5 28.5t11.5 28.5t28.5 11.5zM269 430q-41 0 -76.5 -16t-61 -43.5t-40 -64
t-14.5 -76.5q0 -39 14.5 -75t40.5 -63.5t61 -43.5t76 -16q42 0 79 15t64 42t42.5 63t15.5 78q0 43 -15.5 79.5t-42.5 63.5t-63.5 42t-79.5 15zM272 472q51 0 95.5 -18.5t77 -50.5t51.5 -76.5t19 -95.5t-19 -95.5t-51.5 -76.5t-77 -50.5t-95.5 -18.5q-50 0 -93.5 19t-76 52
t-51.5 76.5t-19 92.5q0 50 18.5 94t51 77t76.5 52t94 19z" />
    <glyph glyph-name="divide" unicode="&#xf7;" 
d="M310 512q17 0 29 -12t12 -29t-12 -29t-29 -12t-29 12t-12 29t12 29t29 12zM310 82q17 0 29 -12t12 -29t-12 -29t-29 -12t-29 12t-12 29t12 29t29 12zM54 280h512v-48h-512v48z" />
    <glyph glyph-name="oslash" unicode="&#xf8;" horiz-adv-x="547" 
d="M88 77q-56 65 -56 153q0 50 18.5 94t51 77t76.5 52t94 19q45 0 84.5 -14.5t71.5 -40.5l63 63l28 -29l-62 -62q27 -30 42.5 -70.5t15.5 -87.5q0 -51 -19 -95.5t-51.5 -76.5t-77 -50.5t-95.5 -18.5q-46 0 -86 16t-71 44l-60 -60l-27 27zM145 80q25 -23 56.5 -35.5
t67.5 -12.5q42 0 79 15t64 42t42.5 63t15.5 78q0 38 -12 70t-33 57zM397 386q-26 21 -58.5 32.5t-69.5 11.5q-41 0 -76.5 -16t-61 -43.5t-40 -64t-14.5 -76.5q0 -34 11 -65.5t31 -56.5z" />
    <glyph glyph-name="ugrave" unicode="&#xf9;" horiz-adv-x="472" 
d="M191 714l101 -147l-38 -17l-124 145zM402 462v-277q0 -35 -3 -69.5t-25 -63.5q-24 -32 -61.5 -47t-76.5 -15t-76.5 15t-61.5 47q-22 29 -25 63.5t-3 69.5v277h45v-261q0 -33 3.5 -64t15.5 -54t36 -37t66 -14t66 14t36 37t15.5 54t3.5 64v261h45z" />
    <glyph glyph-name="uacute" unicode="&#xfa;" horiz-adv-x="472" 
d="M342 695l-124 -145l-38 17l101 147zM402 462v-277q0 -35 -3 -69.5t-25 -63.5q-24 -32 -61.5 -47t-76.5 -15t-76.5 15t-61.5 47q-22 29 -25 63.5t-3 69.5v277h45v-261q0 -33 3.5 -64t15.5 -54t36 -37t66 -14t66 14t36 37t15.5 54t3.5 64v261h45z" />
    <glyph glyph-name="ucircumflex" unicode="&#xfb;" horiz-adv-x="472" 
d="M236 694l138 -106l-38 -29l-100 77l-102 -77l-36 29zM402 462v-277q0 -35 -3 -69.5t-25 -63.5q-24 -32 -61.5 -47t-76.5 -15t-76.5 15t-61.5 47q-22 29 -25 63.5t-3 69.5v277h45v-261q0 -33 3.5 -64t15.5 -54t36 -37t66 -14t66 14t36 37t15.5 54t3.5 64v261h45z" />
    <glyph glyph-name="udieresis" unicode="&#xfc;" horiz-adv-x="472" 
d="M330 674q17 0 28.5 -11.5t11.5 -28.5t-11.5 -28.5t-28.5 -11.5t-28.5 11.5t-11.5 28.5t11.5 28.5t28.5 11.5zM143 674q17 0 28.5 -11.5t11.5 -28.5t-11.5 -28.5t-28.5 -11.5t-28.5 11.5t-11.5 28.5t11.5 28.5t28.5 11.5zM402 462v-277q0 -35 -3 -69.5t-25 -63.5
q-24 -32 -61.5 -47t-76.5 -15t-76.5 15t-61.5 47q-22 29 -25 63.5t-3 69.5v277h45v-261q0 -33 3.5 -64t15.5 -54t36 -37t66 -14t66 14t36 37t15.5 54t3.5 64v261h45z" />
    <glyph glyph-name="yacute" unicode="&#xfd;" horiz-adv-x="460" 
d="M341 695l-124 -145l-38 17l101 147zM-7 462h47l197 -418l177 418h46l-310 -732h-46l111 262z" />
    <glyph glyph-name="thorn" unicode="&#xfe;" horiz-adv-x="560" 
d="M122 -270h-45v1095h45v-446h2q13 22 32.5 39.5t43 29.5t49 18t51.5 6q53 0 95 -19.5t71.5 -52.5t45.5 -77.5t16 -95.5t-16 -94t-45 -75t-71 -50t-94 -18q-54 0 -101.5 22.5t-76.5 67.5h-2v-350zM301 430q-44 0 -78 -17t-57 -46t-35 -66.5t-12 -79.5q0 -41 13 -75.5
t37 -59.5t58 -39.5t76 -14.5q40 0 73.5 16t57 42.5t36.5 61.5t13 74q0 40 -12.5 76.5t-36 65t-57.5 45.5t-76 17z" />
    <glyph glyph-name="ydieresis" unicode="&#xff;" horiz-adv-x="460" 
d="M329 674q17 0 28.5 -11.5t11.5 -28.5t-11.5 -28.5t-28.5 -11.5t-28.5 11.5t-11.5 28.5t11.5 28.5t28.5 11.5zM142 674q17 0 28.5 -11.5t11.5 -28.5t-11.5 -28.5t-28.5 -11.5t-28.5 11.5t-11.5 28.5t11.5 28.5t28.5 11.5zM-7 462h47l197 -418l177 418h46l-310 -732h-46
l111 262z" />
    <glyph glyph-name="OE" unicode="&#x152;" horiz-adv-x="1193" 
d="M429 719q-69 0 -132 -27.5t-110 -74t-75 -108.5t-28 -132q0 -69 27 -132.5t78 -111.5q47 -46 109.5 -72t128.5 -26q69 0 133.5 28t112.5 78q46 48 69.5 108.5t23.5 127.5q0 69 -26.5 131.5t-72 109t-107 74t-131.5 27.5zM767 194h-2q-23 -48 -59 -85.5t-81 -64t-96 -40.5
t-103 -14q-75 0 -145.5 29t-124.5 80q-58 55 -89 126.5t-31 151.5q0 81 31.5 151.5t85.5 123t125.5 82.5t151.5 30q52 0 102.5 -14.5t94.5 -41.5t79.5 -65t58.5 -85h2v196h360v-45h-312v-274h305v-45h-305v-345h312v-45h-360v194z" />
    <glyph glyph-name="oe" unicode="&#x153;" horiz-adv-x="945" 
d="M276 430q-43 0 -79.5 -16t-63 -43.5t-41.5 -64.5t-15 -79q0 -39 15.5 -74.5t42 -62t61.5 -42.5t75 -16q41 0 77 15.5t63 42.5t42.5 63t15.5 77q0 40 -15 76.5t-41 64t-61 43.5t-76 16zM868 269q-4 32 -18.5 61t-38 51.5t-53.5 35.5t-66 13q-35 0 -66 -13t-55 -35t-39 -51
t-18 -62h354zM514 227q-2 -40 11 -75.5t38 -62t59 -42t74 -15.5q57 0 98 28t65 79l38 -23q-30 -61 -83.5 -93.5t-121.5 -32.5q-33 0 -64 9.5t-57.5 27.5t-47 43t-32.5 56q-15 -31 -37.5 -56t-51 -43t-61 -27.5t-66.5 -9.5q-51 0 -95 18.5t-77 51t-52 76t-19 94.5t19.5 95.5
t52.5 77t77.5 51t95.5 18.5q34 0 66.5 -9.5t60.5 -27t50.5 -42t36.5 -55.5q24 64 78 99t122 35q54 0 95.5 -19.5t69.5 -52.5t42.5 -77.5t14.5 -95.5h-399z" />
    <glyph glyph-name="Scaron" unicode="&#x160;" horiz-adv-x="544" 
d="M282 816l-138 107l38 28l100 -76l102 76l36 -28zM430 630q-26 41 -62.5 65t-90.5 24q-30 0 -56 -11.5t-45 -31t-30 -45.5t-11 -56t12.5 -51.5t32.5 -38t44 -28.5t47 -23l144 -75q43 -27 64.5 -63t21.5 -87q0 -47 -19.5 -87t-52.5 -69.5t-75.5 -46t-88.5 -16.5
q-79 0 -137.5 44.5t-84.5 117.5l42 19q24 -60 68.5 -98t113.5 -38q37 0 71 13.5t59.5 37.5t40.5 56.5t15 70.5q0 32 -14.5 55.5t-37 41t-49.5 31l-51 25.5l-136 72q-38 23 -58 56.5t-20 78.5q0 42 14.5 77t40 60.5t61 39.5t77.5 14q57 0 107 -28.5t77 -77.5z" />
    <glyph glyph-name="scaron" unicode="&#x161;" horiz-adv-x="375" 
d="M188 559l-138 107l38 28l100 -76l102 76l36 -28zM271 378q-11 24 -32.5 38t-48.5 14q-15 0 -29 -5.5t-25 -15.5t-18 -23t-7 -28q0 -28 16.5 -43.5t41.5 -26.5t54.5 -21t54.5 -25.5t41.5 -40.5t16.5 -67q0 -32 -11.5 -58.5t-32 -45.5t-47.5 -29.5t-58 -10.5
q-58 0 -101.5 32.5t-57.5 89.5l44 14q13 -42 41 -68t74 -26q44 0 74 30t30 74q0 21 -7.5 36t-20 25t-29 17t-33.5 13q-24 9 -48 19t-43.5 24.5t-31.5 35t-12 49.5q0 26 10.5 47.5t27.5 37t40 24t48 8.5q35 0 69 -21t49 -53z" />
    <glyph glyph-name="Ydieresis" unicode="&#x178;" horiz-adv-x="559" 
d="M385 931q17 0 28.5 -11.5t11.5 -28.5t-11.5 -28.5t-28.5 -11.5t-28.5 11.5t-11.5 28.5t11.5 28.5t28.5 11.5zM198 931q17 0 28.5 -11.5t11.5 -28.5t-11.5 -28.5t-28.5 -11.5t-28.5 11.5t-11.5 28.5t11.5 28.5t28.5 11.5zM4 754h53l222 -382l222 382h53l-251 -432v-322
h-48v322z" />
    <glyph glyph-name="florin" unicode="&#x192;" 
d="M485 486l-9 -45h-115l-72 -380q-6 -32 -12.5 -67.5t-21 -65t-39 -49t-66.5 -19.5q-22 0 -41 4.5t-39 12.5l9 42q17 -7 32.5 -10.5t34.5 -3.5q18 0 33.5 4.5t25.5 20.5q13 21 19.5 48.5t11.5 51.5l79 411h-69l9 45h68l40 214q5 22 11 47.5t18 44.5q15 23 41.5 34.5
t52.5 11.5q19 0 33.5 -3.5t31.5 -11.5l-9 -41q-25 11 -52 11q-29 0 -44.5 -11.5t-24 -29.5t-12 -40.5t-7.5 -44.5l-33 -181h116z" />
    <glyph glyph-name="circumflex" unicode="&#x2c6;" horiz-adv-x="426" 
d="M213 694l138 -106l-38 -29l-100 77l-102 -77l-36 29z" />
    <glyph glyph-name="tilde" unicode="&#x2dc;" horiz-adv-x="439" 
d="M75 608q10 24 30 44t48 20q18 0 35.5 -6t34.5 -13t33 -13.5t30 -6.5q18 0 30.5 12.5t17.5 28.5l29 -22q-7 -27 -30 -46t-51 -19q-13 0 -30 6t-35 14q-17 8 -35 14t-33 6q-19 0 -29 -12.5t-15 -28.5z" />
    <glyph glyph-name="endash" unicode="&#x2013;" horiz-adv-x="500" 
d="M500 342v-45h-500v45h500z" />
    <glyph glyph-name="emdash" unicode="&#x2014;" horiz-adv-x="1000" 
d="M870 342v-45h-740v45h740z" />
    <glyph glyph-name="quoteleft" unicode="&#x2018;" horiz-adv-x="259" 
d="M73 537l83 227l30 -11l-68 -229z" />
    <glyph glyph-name="quoteright" unicode="&#x2019;" horiz-adv-x="259" 
d="M186 751l-83 -227l-30 11l68 229z" />
    <glyph glyph-name="quotesinglbase" unicode="&#x201a;" horiz-adv-x="259" 
d="M186 60l-83 -226l-30 11l68 229z" />
    <glyph glyph-name="quotedblleft" unicode="&#x201c;" horiz-adv-x="390" 
d="M73 537l83 227l30 -11l-68 -229zM204 537l83 227l30 -11l-68 -229z" />
    <glyph glyph-name="quotedblright" unicode="&#x201d;" horiz-adv-x="390" 
d="M317 751l-83 -227l-30 11l68 229zM186 751l-83 -227l-30 11l68 229z" />
    <glyph glyph-name="quotedblbase" unicode="&#x201e;" horiz-adv-x="390" 
d="M317 60l-83 -226l-30 11l68 229zM186 60l-83 -226l-30 11l68 229z" />
    <glyph glyph-name="dagger" unicode="&#x2020;" 
d="M334 754v-199h181v-45h-181v-688h-48v688h-181v45h181v199h48z" />
    <glyph glyph-name="daggerdbl" unicode="&#x2021;" 
d="M334 754v-199h181v-45h-181v-428h181v-45h-181v-215h-48v215h-181v45h181v428h-181v45h181v199h48z" />
    <glyph glyph-name="bullet" unicode="&#x2022;" 
d="M311 566q40 0 74.5 -15t60 -40.5t39.5 -60t14 -73.5t-14 -73t-39.5 -59.5t-60 -40.5t-74.5 -15q-41 0 -75.5 15t-59.5 40.5t-39.5 59.5t-14.5 73t14.5 73.5t39.5 60t59.5 40.5t75.5 15z" />
    <glyph glyph-name="ellipsis" unicode="&#x2026;" horiz-adv-x="1000" 
d="M833 75q17 0 29 -12t12 -29t-12 -29t-29 -12t-29 12t-12 29t12 29t29 12zM500 75q17 0 29 -12t12 -29t-12 -29t-29 -12t-29 12t-12 29t12 29t29 12zM167 75q17 0 29 -12t12 -29t-12 -29t-29 -12t-29 12t-12 29t12 29t29 12z" />
    <glyph glyph-name="perthousand" unicode="&#x2030;" horiz-adv-x="1034" 
d="M484 247q-22 0 -42 -8.5t-35 -22.5t-24 -34t-9 -42t9 -41t24 -33.5t35 -22.5t42 -8t42 8t35 22.5t24 33.5t9 41t-9 42t-24 34t-35 22.5t-42 8.5zM484 289q32 0 59.5 -11t48 -31t32.5 -47t12 -60q0 -32 -12 -59t-32.5 -46.5t-48.5 -30.5t-59 -11q-32 0 -59.5 11t-48 30.5
t-32.5 46.5t-12 59q0 33 12 60t32.5 47t48 31t59.5 11zM571 754l-448 -771l-31 18l446 770zM180 719q-22 0 -42 -8.5t-35 -22.5t-24 -34t-9 -42t9 -41t24 -33.5t35 -22.5t42 -8t42 8t35 22.5t24 33.5t9 41t-9 42t-24 34t-35 22.5t-42 8.5zM180 761q32 0 59.5 -11t48 -31
t32.5 -47t12 -60q0 -32 -12 -59t-32.5 -46.5t-48.5 -30.5t-59 -11q-32 0 -59.5 11t-48 30.5t-32.5 46.5t-12 59q0 33 12 60t32.5 47t48 31t59.5 11zM854 247q-22 0 -42 -8.5t-35 -22.5t-24 -34t-9 -42t9 -41t24 -33.5t35 -22.5t42 -8t42 8t35 22.5t24 33.5t9 41t-9 42
t-24 34t-35 22.5t-42 8.5zM854 289q32 0 59.5 -11t48 -31t32.5 -47t12 -60q0 -32 -12 -59t-32.5 -46.5t-48.5 -30.5t-59 -11q-32 0 -59.5 11t-48 30.5t-32.5 46.5t-12 59q0 33 12 60t32.5 47t48 31t59.5 11z" />
    <glyph glyph-name="guilsinglleft" unicode="&#x2039;" horiz-adv-x="277" 
d="M210 178l-29 -27l-146 169l146 169l29 -27l-121 -142z" />
    <glyph glyph-name="guilsinglright" unicode="&#x203a;" horiz-adv-x="277" 
d="M188 320l-121 142l29 27l146 -169l-146 -169l-29 27z" />
    <glyph glyph-name="trademark" unicode="&#x2122;" horiz-adv-x="940" 
d="M533 754l137 -327h2l139 327h72v-421h-42v379h-4l-165 -379h-2l-163 379h-4v-379h-42v421h72zM378 712h-139v-379h-42v379h-139v42h320v-42z" />
    <glyph glyph-name="fraction" horiz-adv-x="129" 
d="M304 754l-447 -771l-32 18l447 771z" />
    <glyph glyph-name="fi" horiz-adv-x="475" 
d="M122 0h-45v420h-51v42h51v207q0 26 2.5 58t15.5 55q16 28 43.5 42t59.5 14q22 0 40 -7v-41l-18 4t-19 2q-29 0 -45 -13t-23.5 -33t-9 -44t-1.5 -46v-198h116v-42h-116v-420zM358 657q17 0 29 -12t12 -29t-12 -29t-29 -12t-29 12t-12 29t12 29t29 12zM380 0h-45v462h45
v-462z" />
    <glyph glyph-name="fl" horiz-adv-x="439" 
d="M362 0h-45v825h45v-825zM122 0h-45v420h-51v42h51v207q0 26 2.5 58t15.5 55q16 28 43.5 42t59.5 14q22 0 40 -7v-41l-18 4t-19 2q-29 0 -45 -13t-23.5 -33t-9 -44t-1.5 -46v-198h116v-42h-116v-420z" />
    <glyph glyph-name="breve" horiz-adv-x="434" 
d="M119 674q11 -33 38 -47t60 -14t60 14t38 47h43q-3 -26 -16 -46t-32.5 -33.5t-43.5 -20t-49 -6.5t-49 6.5t-43.5 20t-33 33.5t-16.5 46h44z" />
    <glyph glyph-name="dotaccent" horiz-adv-x="313" 
d="M157 674q17 0 28.5 -11.5t11.5 -28.5t-11.5 -28.5t-28.5 -11.5t-28.5 11.5t-11.5 28.5t11.5 28.5t28.5 11.5z" />
    <glyph glyph-name="ring" horiz-adv-x="324" 
d="M162 674q-20 0 -33.5 -13.5t-13.5 -33.5t13.5 -33.5t33.5 -13.5t33.5 13.5t13.5 33.5t-13.5 33.5t-33.5 13.5zM162 714q36 0 61.5 -25.5t25.5 -61.5t-25.5 -61.5t-61.5 -25.5t-61.5 25.5t-25.5 61.5t25.5 61.5t61.5 25.5z" />
    <glyph glyph-name="hungarumlaut" horiz-adv-x="446" 
d="M371 695l-124 -145l-38 17l101 147zM238 695l-124 -145l-38 17l101 147z" />
    <glyph glyph-name="ogonek" horiz-adv-x="321" 
d="M196 2v-2q-11 -8 -24.5 -20t-25 -25.5t-19.5 -29t-8 -30.5q0 -30 20 -44.5t48 -14.5q15 0 29.5 3.5t28.5 8.5l-10 -44q-13 -4 -25.5 -6.5t-26.5 -2.5q-21 0 -40.5 6.5t-34.5 19t-24 30.5t-9 40q0 18 7 34t18 30.5t25 26t28 20.5h43z" />
    <glyph glyph-name="caron" horiz-adv-x="426" 
d="M213 559l-138 107l38 28l100 -76l102 76l36 -28z" />
    <glyph glyph-name="Lslash" horiz-adv-x="327" 
d="M81 354l-81 -57v49l81 57v351h48v-318l128 89v-49l-128 -89v-342h192v-45h-240v354z" />
    <glyph glyph-name="dotlessi" horiz-adv-x="234" 
d="M139 0h-45v462h45v-462z" />
    <glyph glyph-name="lslash" horiz-adv-x="229" 
d="M92 391l-75 -54v45l75 54v389h45v-357l75 53v-45l-75 -53v-423h-45v391z" />
    <glyph glyph-name="minus" 
d="M54 280h512v-48h-512v48z" />
    </font>
</defs>
</svg>
